Диана Вриланд: легенда моды / Глаз должен путешествовать / Diana Vreeland: The Eye Has to Travel (Лиза Иммордино Вриланд / Lisa Immordino Vreeland) [2011, документальный, биографический, мода, DVB] DVO (Селена Интернешнл)


Статистика раздачи [Обновить пиров]
Размер:  1.52 GB   |    Зарегистрирован:  8 месяцев 22 дня   |    Скачан:  0 раз

Полного источника не было: Никогда

 
   
 
 
 

[Цитировать]

Диана Вриланд: легенда моды
Diana Vreeland: The Eye Has to Travel- Дата/Год выпуска: 2011
Страна: США
Жанр: документальный, биографический, мода
Продолжительность: 01:18:32
Перевод: Профессиональный (двухголосый закадровый)
Доп. инфо о переводе: Кинокомпания "Селена Интернешнл" по заказу телеканала "24ДОК"
Русские субтитры: нет
Режиссер: Лиза Иммордино Вриланд / Lisa Immordino Vreeland
Телеканал: 24ДОК
В ролях: Диана Вриланд, Ричард Аведон, Дэвид Бейли, Лорен Бэколл, Мариза Беренсон, Сесил Битон, Труман Капоте, Боб Колачелло, Юбер де Живанши, Оскар де да Рента, Каролина Эрерра, Анжелика Хьюстон, Лорен Хаттон, Кельвин Кляйн, Верушка, Диана вон Фюрстенберг, Одри Хепберн, Мик Джаггер, Жаклин Кеннеди, Джон Ф. Кеннеди, Дайана Росс, Ив-Сен Лоран, Твигги, Энди Уорхол
Описание: Документальный фильм о "верховной жрице моды" Диане Вриланд – культовом обозревателе и редакторе модных журналов. Она сотрудничала с такими изданиями, как Harper’s Bazaar и Vogue, а также курировала выставки, проходившие в нью-йоркском музее Метрополитан. В 1965 году ее имя было включено в Международный список Зала славы самых стильных людей (The International Best Dressed List Hall of Fame). Диана Вриланд по характеру была бунтаркой, она располагала внутренней свободой делать все, чего ей хотелось. Ее движущими силами были страстность, воображение и безграничная фантазия. (Sofi12175)
Доп. информация: DVB-S
Награды: приз "Серебряный Хьюго" за лучший документальный фильм Chicago International Film Festival 2011 + номинация на "Золотой Хьюго"; номинация на приз Джона Шлезингера на Palm Springs International Film Festival 2012; номинация на приз "Дориан" за документальный фильм года на Gay and Lesbian Entertainment Critics Association (GALECA) 2013. Участник 68th Venice International Film Festival 2011.

качество: DVB
формат: MKV
Видео: MPEG Video 2, 720x576@768x576 (4:3), 25 fps, ~2524 kbps avg, 0.243 bit/pixel
Аудио: MPEG Audio 2, 2 ch, 48 kHz, ~192.00 kbps avg

MediaInfo

Общее
Уникальный идентификатор : 250651893674987827806542126578229286784 (0xBC91CC7BD644CB61A63917CD255F9780)
Полное имя : E:\My Torrents 2\[apreder]Diana_Vreeland_The_Eye_Has_to_Travel(2011)DVB.mkv
Формат : Matroska
Версия формата : Version 2
Размер файла : 1,52 Гбайт
Продолжительность : 1 ч. 18 м.
Режим общего битрейта : Переменный
Общий поток : 2771 Кбит/сек
Дата кодирования : UTC 2014-12-07 09:50:26
Программа кодирования : mkvmerge v7.3.0 ('Nouages') 64bit built on Oct 22 2014 18:53:34
Библиотека кодирования : libebml v1.3.0 + libmatroska v1.4.1
Видео
Идентификатор : 1
Формат : MPEG Video
Версия формата : Version 2
Профиль формата : Main@Main
Параметр BVOP формата : Да
Параметр матрицы формата : Выборочная
Параметр GOP формата : M=3, N=36
Format_Settings_PictureStructure : Frame
Идентификатор кодека : V_MPEG2
Идентификатор кодека/Информация : MPEG 1 or 2 Video
Продолжительность : 1 ч. 18 м.
Вид битрейта : Переменный
Битрейт : 2524 Кбит/сек
Ширина : 720 пикселей
Высота : 576 пикселей
Соотношение сторон : 4:3
Режим частоты кадров : Постоянный
Частота кадров : 25,000 кадров/сек
Стандарт вещания : PAL
Цветовое пространство : YUV
Субдискретизация насыщенности : 4:2:0
Битовая глубина : 8 бит
Тип развёртки : Чересстрочная
Порядок развёртки : Верхнее поле первое
Метод сжатия : С потерями
Бит/(Пиксели*Кадры) : 0.243
Временной код первого кадра : 00:00:00:00
Оригинал временного кода : Group of pictures header
Размер потока : 1,38 Гбайт (91%)
Default : Да
Forced : Нет
Gop_OpenClosed_FirstFrame : Closed
Аудио
Идентификатор : 2
Формат : MPEG Audio
Версия формата : Version 1
Профиль формата : Layer 2
Идентификатор кодека : A_MPEG/L2
Идентификатор кодека/Подсказка : MP2
Продолжительность : 1 ч. 18 м.
Вид битрейта : Постоянный
Битрейт : 192 Кбит/сек
Каналы : 2 канала
Частота : 48,0 КГц
Метод сжатия : С потерями
Размер потока : 108 Мбайт (7%)
Язык : Russian
Default : Да
Forced : Нет

Скриншоты

Резервные скриншоты

-[1'964]
[teatrix.ru].t19624.torrent 
Торрент: Зарегистрирован [ 2016-03-18 12:40 ] · 0F99CD0ADE134F065D20EF97080591F7B9122682

Скачать .torrent

Скачать

16 KB

Статус: проверено
Скачан: 0 раз
Размер: 1.52 GB
terms.php



Быстрый ответ

Имя:

      
Для отправки сообщений необходимо включить JavaScript
Показать сообщения:    

Текущее время: 09-Дек 16:30

Часовой пояс: UTC + 3


Вы можете начинать темы
Вы можете отвечать на сообщения
Вы не можете редактировать свои сообщения
Вы не можете удалять свои сообщения
Вы не можете голосовать в опросах
Вы не можете прикреплять файлы к сообщениям
Вы можете скачивать файлы