(Children's Opera) Musik in Deutschland 1950-2000 - Opern fur Kinder * Schwaen - Pinocchios Abenteuer, Wiese * Werzlau - Meister Rockle, Stoy * Dinescu - Der 35. Mai, Wentzel * Hiller - Peter Pan, Seitzer - 2003, APE (image+.cue) lossless


 

[Цитировать]

Musik in Deutschland 1950-2000 - Opern für Kinder
Жанр: Children's Opera
Страна-производитель диска: EU
Год издания диска: 2003
Издатель (лейбл): BMG / RCA
Номер по каталогу: 74321 73636 2
Дата записи: 1972-2000
Аудиокодек: APE
Тип рипа: image+.cue
Битрейт аудио: lossless
Продолжительность: 71'12
Источник: собственный рип
Наличие сканов в содержимом раздачи: да
Треклист/Исполнители:
Kurt Schwaen (1909) - Pinocchios Abenteuer (1969)
Oper für Kinder in zehn Bildern
Text: Wera und Claus Küchenmeister frei nach dem gleichnamigen Roman für Kinder von Carlo Collodi
1 1.-3. Bild 11.59
2 6. Bild 6.41
3 9.-10. Bild 9.47
Ute Trekel-Burkhardt, Sopran (Pinocchio)
Werner Haseleu, Bariton (Gepetto )
Konrad Rupf, Bass (Feuerfresser)
Helmut Klotz, Tenor (Fischer)
Helga Termer, Sopran (Grille)
Klaus Buron, Bass (Fuchs)
Hans-Peter Schwarzbach, Tenor (Kater)
Hans-Joachim Hegewald, Sprecher der Zwischentexte .
Mitglieder des Rundfunkchores Leipzig
Rundfunk-Unterhaltungs-Orchester Leipzig, Klaus Wiese
Aufnahme: 1972, Funkhaus LeipzigJoachim Werzlau (1913-2001) - Meister Röckle (1976)
Oper für groBe und kleine Leute in 10 Bildern
Text: Günther Deicke nach Motiven des Kinderbuches Meister Röckle und Mister FlammfuB von IIse und Vilmos Korn
4 Viertes Bild, Nr. 13-1 6: Haus und Hinterhof der Louisa 9.28
5 Fünftes Bild, Nr. 17-19: Hölle 5.40
Rudolf Asmus, Bariton (Meister Röckle)
Carola Nossek, Sopran (Louisa)
Gertraut Prenzlow, Alt (Louisas Grossmutter)
Reiner SüB, Bass (Teute I)
Günther Fröhlich, Bass (Höllenmutter)
Hans Pschicholz, Tenor (Mogel, ein Teufel)
Horst Lunow, Bariton (Fabrikant)
Chor der Deutschen Staatsoper Berlin
Staatskapelle Berlin, Ernst Stoy
Aufnahme: 1977. Christuskirche BerlinVioleta Dinescu (1953) - Der 35. Mai oder Konrad reitet in die Südsee (1986)
Kinderoper in 7 Bildern nach dem gleichnamigen Roman van Erich Kästner
Libretto: Florian Zwipf und Ulrike Wendt
6 2. Bild. Schlaraffenland 11.26
Itziar Lesaka, Kinderstimme (Konrad)
Michael Nagy, Tenor (Onkel Ringelhut)
Gun-Wook Lee, Bass (Negro Kaballo)
Reto Raphael Rosin,Tenor (Seidelbast)
Guillermo Anzorena, Bariton (Der Portier des Schlaraffenlandes)
Kinderchor der Württembergischen Staatstheater Stuttgart
Orchester-Ensemble "Zementwerk", Willem M. Wentzel
Aufnahme: 2000. Funkstudio des Südwestrundfunks, StuttgartWilfried Hiller (1941) - Peter Pan (1997)
Musikalische Abenteuerreise nach dem Theaterstück von James Matthew Barrie in der Bearbeitung von Erich Kästner
7 Vorspiel "Was ist denn los George" 15.30
Martina Koppelstetter, Mezzosopran (Peter Pan)
Simon Pauly, Bariton (George Darling! Kapitän Haken)
Sebastian Wölfl, Knabensopran (john Darling)
Simon Kaps, Knabensopran (Michael Darling)
Susanne Bernhard, Soubrette (Frau Darling)
Annabelle Pichler, Sopran (Tigerlilly)
Orchester des Bayerischen Rundfunks, Werner Seitzer
Aufnahme: 1997, Prinzregententheater München

Лог создания рипа

Exact Audio Copy V1.0 beta 3 from 29. August 2011
EAC extraction logfile from 8. March 2014, 13:10
Musik in Deutscland 1950-2000 / Opern für Kinder
Used drive : TSSTcorpCDDVDW SE-208AB Adapter: 1 ID: 0
Read mode : Secure
Utilize accurate stream : Yes
Defeat audio cache : Yes
Make use of C2 pointers : No
Read offset correction : 6
Overread into Lead-In and Lead-Out : No
Fill up missing offset samples with silence : Yes
Delete leading and trailing silent blocks : No
Null samples used in CRC calculations : Yes
Used interface : Native Win32 interface for Win NT & 2000
Used output format : Monkey's Audio Lossless Encoder
Selected bitrate : High Lossless Compression
Quality : High
Add ID3 tag : Yes
Command line compressor : C:\Program Files (x86)\Monkey's Audio\MAC.exe
Additional command line options : %dest% -t "Artist=%artist%" -t "Title=%title%" -t "Album=%albumtitle%" -t "Year=%year%" -t "Track=%tracknr%" -t "Genre=%genre%" mac.exe %source% %dest% -c3000 -v
TOC of the extracted CD
Track | Start | Length | Start sector | End sector
---------------------------------------------------------
1 | 0:00.00 | 12:01.59 | 0 | 54133
2 | 12:01.59 | 6:45.67 | 54134 | 84575
3 | 18:47.51 | 9:56.74 | 84576 | 129349
4 | 28:44.50 | 9:30.53 | 129350 | 172152
5 | 38:15.28 | 5:49.42 | 172153 | 198369
6 | 44:04.70 | 11:36.55 | 198370 | 250624
7 | 55:41.50 | 15:30.17 | 250625 | 320391
Range status and errors
Selected range
Filename E:\Foobar-EAC\Musik in Deutscland 1950-2000 - Opern für Kinder.wav
Peak level 98.8 %
Extraction speed 2.1 X
Range quality 99.9 %
Test CRC C5E0609B
Copy CRC C5E0609B
Copy OK
No errors occurred
AccurateRip summary
Track 1 accurately ripped (confidence 3) [B142CA0F] (AR v1)
Track 2 accurately ripped (confidence 3) [CDEBA34B] (AR v1)
Track 3 accurately ripped (confidence 3) [248F2D50] (AR v1)
Track 4 accurately ripped (confidence 3) [753CA56A] (AR v1)
Track 5 accurately ripped (confidence 3) [24FDF038] (AR v1)
Track 6 accurately ripped (confidence 3) [5EFD3EE2] (AR v1)
Track 7 accurately ripped (confidence 3) [04019ECE] (AR v1)
All tracks accurately ripped
End of status report
---- CUETools DB Plugin V2.1.3
[CTDB TOCID: ZIYEQ.s24sGPwCyhpFcMtP_mKTw-] disk not present in database, Submit result: ZIYEQ.s24sGPwCyhpFcMtP_mKTw- has been uploaded
==== Log checksum 6F50909968AF0D6D0C28F570907A7E9BFC86C968093CF990B463C648E1EF88C3 ====

Содержание индексной карты (.CUE)

REM GENRE Opera
REM DATE 2002
REM DISCID 5E10AF07
REM COMMENT "ExactAudioCopy v1.0b3"
PERFORMER "Musik in Deutscland 1950-2000"
TITLE "Opern für Kinder"
FILE "Musik in Deutscland 1950-2000 - Opern für Kinder.ape" WAVE
TRACK 01 AUDIO
TITLE "1.-3. Bild"
PERFORMER "Schwaen - Pinoccios Abenteuer"
ISRC DEC730200269
FLAGS DCP
INDEX 01 00:00:00
TRACK 02 AUDIO
TITLE "6. Bild"
PERFORMER "Schwaen - Pinoccios Abenteuer"
ISRC DEC730200270
FLAGS DCP
INDEX 00 11:59:01
INDEX 01 12:01:59
TRACK 03 AUDIO
TITLE "9.-10. Bild"
PERFORMER "Schwaen - Pinoccios Abenteuer"
ISRC DEC730200271
FLAGS DCP
INDEX 00 18:42:38
INDEX 01 18:47:51
TRACK 04 AUDIO
TITLE "4. Bild no. 13.-16. Haus und Hinterhof der Louisa"
PERFORMER "Werzlau - Meister Röckle"
ISRC 000000000000
FLAGS DCP
INDEX 00 28:35:00
INDEX 01 28:44:50
TRACK 05 AUDIO
TITLE "5. Bild no. 17.-19. Hölle"
PERFORMER "Werzlau - Meister Röckle"
ISRC 000000000000
FLAGS DCP
INDEX 00 38:12:34
INDEX 01 38:15:28
TRACK 06 AUDIO
TITLE "2. Bild Schlaraffenland"
PERFORMER "Dinescu - Der 35. Mai"
ISRC 000000000000
FLAGS DCP
INDEX 00 43:55:37
INDEX 01 44:04:70
TRACK 07 AUDIO
TITLE "Vorspiel: Was ist denn los George"
PERFORMER "Hiller - Peter Pan"
ISRC 000000000000
FLAGS DCP
INDEX 00 55:30:70
INDEX 01 55:41:50



Показать сообщения:    

Текущее время: 10-Дек 23:30

Часовой пояс: UTC + 3


Вы не можете начинать темы
Вы не можете отвечать на сообщения
Вы не можете редактировать свои сообщения
Вы не можете удалять свои сообщения
Вы не можете голосовать в опросах
Вы не можете прикреплять файлы к сообщениям
Вы не можете скачивать файлы