(Opera) Verdi - Un Ballo in maschera (Merighi, Gencer, Cappuccilli, Lazzarini, Santelli - Orchestra del Teatro alla Scala di Milano, Verchi) - 2008, APE (image+.cue) lossless


 

[Цитировать]

Giuseppe Verdi - Un Ballo in maschera
Жанр: Opera
Страна-производитель диска: EU
Год издания диска: 2008
Издатель (лейбл): Myto
Номер по каталогу: 2 MDCD 0008
Дата записи: 1973
Аудиокодек: APE
Тип рипа: image+.cue
Битрейт аудио: lossless
Продолжительность: 69’17 + 63’00
Источник: собственный рип
Наличие сканов в содержимом раздачи: да
Треклист:

CD1

1. Act 1. Preludio
2. Act 1. Posa in pace, a' bei sogni ristora,
3. Act 1. S'avanza il Conte
4. Act 1. La rivedra nell'estasi
5. Act 1. Il cenno mio di la con essi attendi.
6. Act 1. Alla vita che t'arride
7. Act 1. Il primo Giudice.
8. Act 1. Volta la terrea
9. Act 1. Signori: oggi d'Ulrica
10. Act 1. Ogni cura si doni al diletto,
11. Act 1. Zitti...
12. Act 1. Re dell'abisso,
13. Act 1. Su, fatemi largo,
14. Act 1. Che v'agita cosi?
15. Act 1. Su, profetessa, monta il treppie'.
16. Act 1. Di' tu se fedele
17. Act 1. Chi voi siate, l'audace parola
18. Act 1. E scherzo od e follia
19. Act 1. Finisci il vaticinio.
20. Act 2. Preludio
21. Act 2. Ecco l'orrido campo
22. Act 2. Ma dall'arido stelo divulsa
23. Act 2. Teco io sto.
24. Act 2. M'ami, m'ami!... oh, sia distrutto

CD2

1. Act 2. Ahime!... S'appressa alcun!
2. Act 2. Odi tu come fremono cupi
3. Act 2. Seguitemi. ...Mio Dio!
4. Act 2. Ve', se di notte qui colla sposa
5. Act 3. A tal colpa e nulla il pianto,
6. Act 3. Morro, ma prima in grazia,
7. Act 3. Alzati; la tuo figlio
8. Act 3. Eri tu che macchiavi quell'anima,
9. Act 3. Siam soli, Udite.
10. Act 3. Dunque l'onta di tutti sol una,
11. Act 3. E chi vien?
12. Act 3. Il messaggio entri.
13. Act 3. Di che fulgor, che musiche
14. Act 3. Forse la soglia attinse,
15. Act 3. Ma se m'e forza perdeti
16. Act 3. Ah! desse e la...
17. Act 3. Si, rivederti Amelia
18. Act 3. Altro de nostri e questo.
19. Act 3. Saper vorreste di che si veste,
20. Act 3. Fervono amori er danze
21. Act 3. Ah! perche qui! fuggite...
22. Act 3. E tu ricevi il mio!
23. Act 3. Ella e pura: in braccio a morte
24. Act 3. Cor si grande e generoso
Исполнители:
Giuseppe Verdi - Un Ballo in maschera
Melodramma en trois actes text de Antonio Somma
d’après le livret Gustave III d’Eugène Scribe pour la musique de Daniel Auber
et créé au Teatro Apollo de Rome, le 17 février 1859
Riccardo, Conte di Warwick - Guiorgio Merighi, tenor
Amelia - Leyla Gencer, soprano
Renato - Piero Cappuccilli, baritone
Ulrica - Adriana Lazzarini, contralto
Oscar - Giovanna Santelli, soprano
Silvano - Carlo Meliciani, bass
Samuel - Federico Davià, bass
Tom - Silvio Maionica, bass
Un Giudice - Gianfranco Manganotti, tenor
Un Servo d’Amelia - Regolo Romani, tenor
Coro del Teatro alla Scala di Milano
Maestro del Coro, Romano Gandolfi
Orchestra del Teatro alla Scala di Milano
Maestro Concertatore e Direttore, Nino Verchi

Лог создания рипа

CD1

Exact Audio Copy V1.0 beta 3 from 29. August 2011
EAC extraction logfile from 7. September 2014, 17:13
Verdi / Un Ballo in maschera, Verchi CD1
Used drive : TS8XDVDSTRANSCEND Adapter: 1 ID: 1
Read mode : Secure
Utilize accurate stream : Yes
Defeat audio cache : Yes
Make use of C2 pointers : No
Read offset correction : 6
Overread into Lead-In and Lead-Out : No
Fill up missing offset samples with silence : Yes
Delete leading and trailing silent blocks : No
Null samples used in CRC calculations : Yes
Used interface : Native Win32 interface for Win NT & 2000
Used output format : Monkey's Audio Lossless Encoder
Selected bitrate : High Lossless Compression
Quality : High
Add ID3 tag : No
Command line compressor : C:\Program Files (x86)\Exact Audio Copy\MAC\MAC.exe
TOC of the extracted CD
Track | Start | Length | Start sector | End sector
---------------------------------------------------------
1 | 0:00.00 | 4:06.21 | 0 | 18470
2 | 4:06.21 | 1:36.03 | 18471 | 25673
3 | 5:42.24 | 1:26.73 | 25674 | 32196
4 | 7:09.22 | 2:01.31 | 32197 | 41302
5 | 9:10.53 | 2:18.12 | 41303 | 51664
6 | 11:28.65 | 2:49.32 | 51665 | 64371
7 | 14:18.22 | 1:27.10 | 64372 | 70906
8 | 15:45.32 | 1:47.65 | 70907 | 78996
9 | 17:33.22 | 0:51.74 | 78997 | 82895
10 | 18:25.21 | 2:27.10 | 82896 | 93930
11 | 20:52.31 | 1:58.13 | 93931 | 102793
12 | 22:50.44 | 4:22.35 | 102794 | 122478
13 | 27:13.04 | 3:20.09 | 122479 | 137487
14 | 30:33.13 | 5:09.37 | 137488 | 160699
15 | 35:42.50 | 0:54.43 | 160700 | 164792
16 | 36:37.18 | 3:02.22 | 164793 | 178464
17 | 39:39.40 | 2:25.11 | 178465 | 189350
18 | 42:04.51 | 3:28.20 | 189351 | 204970
19 | 45:32.71 | 4:37.57 | 204971 | 225802
20 | 50:10.53 | 2:39.38 | 225803 | 237765
21 | 52:50.16 | 1:35.64 | 237766 | 244954
22 | 54:26.05 | 5:38.44 | 244955 | 270348
23 | 60:04.49 | 5:09.45 | 270349 | 293568
24 | 65:14.19 | 4:01.45 | 293569 | 311688
Range status and errors
Selected range
Filename D:\EAC\Verdi - Un Ballo in maschera, Verchi CD1.wav
Peak level 94.0 %
Extraction speed 3.1 X
Range quality 100.0 %
Test CRC E64B92E4
Copy CRC E64B92E4
Copy OK
No errors occurred
AccurateRip summary
Track 1 not present in database
Track 2 not present in database
Track 3 not present in database
Track 4 not present in database
Track 5 not present in database
Track 6 not present in database
Track 7 not present in database
Track 8 not present in database
Track 9 not present in database
Track 10 not present in database
Track 11 not present in database
Track 12 not present in database
Track 13 not present in database
Track 14 not present in database
Track 15 not present in database
Track 16 not present in database
Track 17 not present in database
Track 18 not present in database
Track 19 not present in database
Track 20 not present in database
Track 21 not present in database
Track 22 not present in database
Track 23 not present in database
Track 24 not present in database
None of the tracks are present in the AccurateRip database
End of status report
---- CUETools DB Plugin V2.1.3
[CTDB TOCID: MLv8hjbjJnL76NXqOPAQ.kOU6ik-] disk not present in database, Submit result: unrecognized or virtual drive
==== Log checksum DC1AA581DD473837966BDDAC702130E1C833C70859D565640A1AB07435390915 ====

CD2

Exact Audio Copy V1.0 beta 3 from 29. August 2011
EAC extraction logfile from 7. September 2014, 16:55
Verdi / Un Ballo in maschera, Verchi CD2
Used drive : TSSTcorpCDDVDW SE-208AB Adapter: 1 ID: 0
Read mode : Secure
Utilize accurate stream : Yes
Defeat audio cache : Yes
Make use of C2 pointers : No
Read offset correction : 6
Overread into Lead-In and Lead-Out : No
Fill up missing offset samples with silence : Yes
Delete leading and trailing silent blocks : No
Null samples used in CRC calculations : Yes
Used interface : Native Win32 interface for Win NT & 2000
Used output format : Monkey's Audio Lossless Encoder
Selected bitrate : High Lossless Compression
Quality : High
Add ID3 tag : No
Command line compressor : C:\Program Files (x86)\Exact Audio Copy\MAC\MAC.exe
TOC of the extracted CD
Track | Start | Length | Start sector | End sector
---------------------------------------------------------
1 | 0:00.00 | 3:02.63 | 0 | 13712
2 | 3:02.63 | 1:52.48 | 13713 | 22160
3 | 4:55.36 | 2:39.08 | 22161 | 34093
4 | 7:34.44 | 5:35.15 | 34094 | 59233
5 | 13:09.59 | 2:18.33 | 59234 | 69616
6 | 15:28.17 | 4:49.06 | 69617 | 91297
7 | 20:17.23 | 1:36.73 | 91298 | 98570
8 | 21:54.21 | 6:03.54 | 98571 | 125849
9 | 27:58.00 | 2:15.13 | 125850 | 135987
10 | 30:13.13 | 2:08.69 | 135988 | 145656
11 | 32:22.07 | 3:47.71 | 145657 | 162752
12 | 36:10.03 | 1:00.44 | 162753 | 167296
13 | 37:10.47 | 2:44.08 | 167297 | 179604
14 | 39:54.55 | 2:32.18 | 179605 | 191022
15 | 42:26.73 | 2:45.17 | 191023 | 203414
16 | 45:12.15 | 0:57.47 | 203415 | 207736
17 | 46:09.62 | 1:12.40 | 207737 | 213176
18 | 47:22.27 | 1:29.31 | 213177 | 219882
19 | 48:51.58 | 1:56.00 | 219883 | 228582
20 | 50:47.58 | 1:47.72 | 228583 | 236679
21 | 52:35.55 | 4:13.54 | 236680 | 255708
22 | 56:49.34 | 1:11.32 | 255709 | 261065
23 | 58:00.66 | 2:10.52 | 261066 | 270867
24 | 60:11.43 | 2:46.42 | 270868 | 283359
Range status and errors
Selected range
Filename D:\EAC\Verdi - Un Ballo in maschera, Verchi CD2.wav
Peak level 100.0 %
Extraction speed 4.6 X
Range quality 100.0 %
Test CRC 3CEF4145
Copy CRC 3CEF4145
Copy OK
No errors occurred
AccurateRip summary
Track 1 not present in database
Track 2 not present in database
Track 3 not present in database
Track 4 not present in database
Track 5 not present in database
Track 6 not present in database
Track 7 not present in database
Track 8 not present in database
Track 9 not present in database
Track 10 not present in database
Track 11 not present in database
Track 12 not present in database
Track 13 not present in database
Track 14 not present in database
Track 15 not present in database
Track 16 not present in database
Track 17 not present in database
Track 18 not present in database
Track 19 not present in database
Track 20 not present in database
Track 21 not present in database
Track 22 not present in database
Track 23 not present in database
Track 24 not present in database
None of the tracks are present in the AccurateRip database
End of status report
---- CUETools DB Plugin V2.1.3
[CTDB TOCID: Fo1hA8DWsJ11vTdM6j2Gtx73aLc-] disk not present in database, Submit result: Fo1hA8DWsJ11vTdM6j2Gtx73aLc- has been uploaded
==== Log checksum 4AA0B91C95077559021B8EE1E6CE2CAA744D63B7F0ED420E01DCEF49B88B7A83 ====

Содержание индексной карты (.CUE)

CD1

REM GENRE Opera
REM DATE 1973
REM DISCID 43103B18
REM COMMENT "ExactAudioCopy v1.0b3"
PERFORMER "Verdi"
TITLE "Un Ballo in maschera, Verchi CD1"
FILE "Verdi - Un Ballo in maschera, Verchi CD1.ape" WAVE
TRACK 01 AUDIO
TITLE "Act 1. Preludio"
PERFORMER "Verdi"
INDEX 01 00:00:00
TRACK 02 AUDIO
TITLE "Posa in pace, a' bei sogni ristora,"
PERFORMER "Verdi"
INDEX 01 04:06:21
TRACK 03 AUDIO
TITLE "S'avanza il Conte"
PERFORMER "Verdi"
INDEX 01 05:42:24
TRACK 04 AUDIO
TITLE "La rivedra nell'estasi"
PERFORMER "Verdi"
INDEX 01 07:09:22
TRACK 05 AUDIO
TITLE "Il cenno mio di la con essi attendi."
PERFORMER "Verdi"
INDEX 01 09:10:53
TRACK 06 AUDIO
TITLE "Alla vita che t'arride"
PERFORMER "Verdi"
INDEX 01 11:28:65
TRACK 07 AUDIO
TITLE "Il primo Giudice."
PERFORMER "Verdi"
INDEX 01 14:18:22
TRACK 08 AUDIO
TITLE "Volta la terrea"
PERFORMER "Verdi"
INDEX 01 15:45:32
TRACK 09 AUDIO
TITLE "Signori: oggi d'Ulrica"
PERFORMER "Verdi"
INDEX 01 17:33:22
TRACK 10 AUDIO
TITLE "Ogni cura si doni al diletto,"
PERFORMER "Verdi"
INDEX 01 18:25:21
TRACK 11 AUDIO
TITLE "Zitti..."
PERFORMER "Verdi"
INDEX 01 20:52:31
TRACK 12 AUDIO
TITLE "Re dell'abisso,"
PERFORMER "Verdi"
INDEX 01 22:50:44
TRACK 13 AUDIO
TITLE "Su, fatemi largo,"
PERFORMER "Verdi"
INDEX 01 27:13:04
TRACK 14 AUDIO
TITLE "Che v'agita cosi?"
PERFORMER "Verdi"
INDEX 01 30:33:13
TRACK 15 AUDIO
TITLE "Su, profetessa, monta il treppie'."
PERFORMER "Verdi"
INDEX 01 35:42:50
TRACK 16 AUDIO
TITLE "Di' tu se fedele"
PERFORMER "Verdi"
INDEX 01 36:37:18
TRACK 17 AUDIO
TITLE "Chi voi siate, l'audace parola"
PERFORMER "Verdi"
INDEX 01 39:39:40
TRACK 18 AUDIO
TITLE "E scherzo od e follia"
PERFORMER "Verdi"
INDEX 01 42:04:51
TRACK 19 AUDIO
TITLE "Finisci il vaticinio."
PERFORMER "Verdi"
INDEX 01 45:32:71
TRACK 20 AUDIO
TITLE "Act 2. Preludio"
PERFORMER "Verdi"
INDEX 01 50:10:53
TRACK 21 AUDIO
TITLE "Ecco l'orrido campo"
PERFORMER "Verdi"
INDEX 01 52:50:16
TRACK 22 AUDIO
TITLE "Ma dall'arido stelo divulsa"
PERFORMER "Verdi"
INDEX 01 54:26:05
TRACK 23 AUDIO
TITLE "Teco io sto."
PERFORMER "Verdi"
INDEX 01 60:04:49
TRACK 24 AUDIO
TITLE "M'ami, m'ami!... oh, sia distrutto"
PERFORMER "Verdi"
INDEX 01 65:14:19

CD2

REM GENRE Opera
REM DATE 1973
REM DISCID 5B0EC218
REM COMMENT "ExactAudioCopy v1.0b3"
PERFORMER "Verdi"
TITLE "Un Ballo in maschera, Verchi CD2"
FILE "Verdi - Un Ballo in maschera, Verchi CD2.ape" WAVE
TRACK 01 AUDIO
TITLE "Ahime!... S'appressa alcun!"
PERFORMER "Verdi"
INDEX 01 00:00:00
TRACK 02 AUDIO
TITLE "Odi tu come fremono cupi"
PERFORMER "Verdi"
INDEX 01 03:02:63
TRACK 03 AUDIO
TITLE "Seguitemi. ...Mio Dio!"
PERFORMER "Verdi"
INDEX 01 04:55:36
TRACK 04 AUDIO
TITLE "Ve', se di notte qui colla sposa"
PERFORMER "Verdi"
INDEX 01 07:34:44
TRACK 05 AUDIO
TITLE "Act 3. A tal colpa e nulla il pianto,"
PERFORMER "Verdi"
INDEX 01 13:09:59
TRACK 06 AUDIO
TITLE "Morro, ma prima in grazia,"
PERFORMER "Verdi"
INDEX 01 15:28:17
TRACK 07 AUDIO
TITLE "Alzati; la tuo figlio"
PERFORMER "Verdi"
INDEX 01 20:17:23
TRACK 08 AUDIO
TITLE "Eri tu che macchiavi quell'anima,"
PERFORMER "Verdi"
INDEX 01 21:54:21
TRACK 09 AUDIO
TITLE "Siam soli, Udite."
PERFORMER "Verdi"
INDEX 01 27:58:00
TRACK 10 AUDIO
TITLE "Dunque l'onta di tutti sol una,"
PERFORMER "Verdi"
INDEX 01 30:13:13
TRACK 11 AUDIO
TITLE "E chi vien?"
PERFORMER "Verdi"
INDEX 01 32:22:07
TRACK 12 AUDIO
TITLE "Il messaggio entri."
PERFORMER "Verdi"
INDEX 01 36:10:03
TRACK 13 AUDIO
TITLE "Di che fulgor, che musiche"
PERFORMER "Verdi"
INDEX 01 37:10:47
TRACK 14 AUDIO
TITLE "Forse la soglia attinse,"
PERFORMER "Verdi"
INDEX 01 39:54:55
TRACK 15 AUDIO
TITLE "Ma se m'e forza perdeti"
PERFORMER "Verdi"
INDEX 01 42:26:73
TRACK 16 AUDIO
TITLE "Ah! desse e la..."
PERFORMER "Verdi"
INDEX 01 45:12:15
TRACK 17 AUDIO
TITLE "Si, rivederti Amelia"
PERFORMER "Verdi"
INDEX 01 46:09:62
TRACK 18 AUDIO
TITLE "Altro de nostri e questo."
PERFORMER "Verdi"
INDEX 01 47:22:27
TRACK 19 AUDIO
TITLE "Saper vorreste di che si veste,"
PERFORMER "Verdi"
INDEX 01 48:51:58
TRACK 20 AUDIO
TITLE "Fervono amori er danze"
PERFORMER "Verdi"
INDEX 01 50:47:58
TRACK 21 AUDIO
TITLE "Ah! perche qui! fuggite..."
PERFORMER "Verdi"
INDEX 01 52:35:55
TRACK 22 AUDIO
TITLE "E tu ricevi il mio!"
PERFORMER "Verdi"
INDEX 01 56:49:34
TRACK 23 AUDIO
TITLE "Ella e pura: in braccio a morte"
PERFORMER "Verdi"
INDEX 01 58:00:66
TRACK 24 AUDIO
TITLE "Cor si grande e generoso"
PERFORMER "Verdi"
INDEX 01 60:11:43
Доп. информация:
“Leyla Gencer was the greatest Turkish opera singer of the 20th century and a singing actor of formidable power and individuality.
Although she came from what she herself referred to as a ‘Muslim and oriental’ background, she had the good fortune, as a student in Istanbul, to study with the famous Italian dramatic soprano Giannina Arangi-Lombardi, so that when she went to Italy in 1953, she was thoroughly grounded in the traditions of Italian opera.
Gencer was a very beautiful woman, with large dark eyes, a wide, generous mouth and a natural command of the stage.
She made her début as Santuzza in CAVALLERIA RUSTICANA at the open-air summer festival in Naples in 1953, and remained a particular favourite with the Neapolitans.
Throughout her career, Gencer had a very wide repertoire, ranging from Monteverdi, Gluck and Mozart to Verdi, Ponchielli and Puccini.
During her career she sang virtually every soprano rôle in Verdi's operas, but it was especially in the revival of bel-canto works by Bellini, Donizetti and Pacini that she made her mark.
To some extent, Gencer shot to fame in the immediate aftermath of the end of Maria Callas' Italian career - Gencer followed Callas as Anna Bolena at La Scala, and in the rôle of Paolina in Donizetti's POLIUTO - the last new part Callas undertook.
As Queen Elizabeth I of England, first in Donizetti's ROBERTO DEVEREUX, and then in Rossini's ELISABETTA, REGINA D'INGHILTERRA, Gencer preceded Montserrat Caballé and Beverly Sills, who later recorded the rôles.
Although Gencer's career was mostly in Italy, she appeared in the United States, where she made her début in San Francisco as Lucia in 1957, returning there, as well as to Chicago and Dallas.
John Ardoin described her voice in a memorable LUCREZIA BORGIA in 1974, as ‘poignant, compelling’ and mentioned the ‘strange colours and deep pathos of her art’.
In England she was heard at Glyndebourne as the Countess in FIGARO, and as Anna Bolena.
At Covent Garden she was Donna Anna in Zeffirelli's 1962 production of DON GIOVANNI, then Elisabeth de Valois in DON CARLOS.
Gencer's most memorable UK appearances were undoubtedly in the title rôle of Donizetti's Maria Stuarda, at the Edinburgh Festival in 1969.
The sparks that flew on stage in the confrontation - historically absurd but dramatically thrilling - when Gencer as Mary Stuart ripped off her glove and flung it in the face of Shirley Verrett as Elizabeth I at the words, ‘Vil bastarda’ will surely live in the memory of all who witnessed it.
Gencer had no career whatsoever as a recording artist, but many of her broadcasts from Italian radio have now been issued on disc and are a fine memorial to her voice and dramatic ability.”



Показать сообщения:    

Текущее время: 10-Дек 08:05

Часовой пояс: UTC + 3


Вы не можете начинать темы
Вы не можете отвечать на сообщения
Вы не можете редактировать свои сообщения
Вы не можете удалять свои сообщения
Вы не можете голосовать в опросах
Вы не можете прикреплять файлы к сообщениям
Вы не можете скачивать файлы