Конек-горбунок (Борис Гершт) [1986 г., сказка, телеспектакль, TVRip]


 

[Цитировать]

Конек-горбунок Год выпуска: 1986.
Жанр: сказка, телеспектакль.
Продолжительность: 01:20:07.
Режиссер: заслуженный работник культуры России Борис Гершт.
Действующие лица и исполнители:
Иван - Юрий Карпенко
Царь-девица - Маргарита Смирнова,
Конек-Горбунок - Евгений Ганелин,
Скоморохи - Андрей Анкудинов, Аркадий Коваль, Андрей Ургант,
Спальник - народный артист РСФСР Вадим Яковлев,
Царь - заслуженный артист РСФСР Александр Демьяненко,
Гаврило - Георгий Штиль,
Данило - Евгений Тиличеев,
Жар-птица - Мария Тхоржевская,
Стражники - Алексей Гурьев, Андрей Краско.
Описание:
Конек-Горбунок – это легкая и веселая телепостановка по мотивам сказки Петра Ершова об Иванушке-дурачке и его верном друге волшебном Коньке-Горбунке, который помог ему не только поймать Жар-птицу и похитить прекрасную Царь-девицу, но и самому стать царем.
Дополнительная информация:
Страна: СССР .
Выпущено: © Ленинградское телевидение.
Автор: Петр Павлович Ершов.
Авторы сценария: Рудольф Еременко, заслуженный работник культуры России Борис Гершт.
Композитор: Станислав Пучков.
Художники: Ольга Воронецкая, Леонид Пережигин.
Оператор-постановщик: Сергей Дубровский.

Релиз

Качество: TVRip
Формат: AVI
Видео: 640x480 (1.33:1), 25 fps, XviD MPEG-4 ~1162 kbps avg, 0.15 bit/pixel
Аудио: 44.100 kHz, MPEG Layer 3, 2 ch, ~128.00 kbps avg

Отчет MI

Общее
Полное имя : Konek.gorbunok.1986.XviD.TVRip.fenixclub.avi
Format : AVI
Format/Info : Audio Video Interleave
File size : 745 MiB
Duration : 1h 20mn
Overall bit rate : 1 300 Kbps
Writing application : VirtualDubModRus 1.5.10.2 (build 2542/release)
Writing library : VirtualDubMod build 2542/release
Video
ID : 0
Format : MPEG-4 Visual
Format profile : Advanced Simple@L5
Format settings, BVOP : 2
Format settings, QPel : No
Format settings, GMC : No warppoints
Format settings, Matrix : Default (H.263)
Muxing mode : Packed bitstream
Codec ID : XVID
Codec ID/Hint : XviD
Duration : 1h 20mn
Bit rate : 1 163 Kbps
Width : 640 pixels
Height : 480 pixels
Display aspect ratio : 4:3
Frame rate : 25.000 fps
Color space : YUV
Chroma subsampling : 4:2:0
Bit depth : 8 bits
Scan type : Progressive
Compression mode : Lossy
Bits/(Pixel*Frame) : 0.151
Stream size : 666 MiB (89%)
Writing library : XviD 1.2.1 (UTC 2008-12-04)
Audio
ID : 1
Format : MPEG Audio
Format version : Version 1
Format profile : Layer 3
Mode : Joint stereo
Mode extension : MS Stereo
Codec ID : 55
Codec ID/Hint : MP3
Duration : 1h 20mn
Bit rate mode : Constant
Bit rate : 128 Kbps
Channel(s) : 2 channels
Sampling rate : 44.1 KHz
Compression mode : Lossy
Stream size : 73.4 MiB (10%)
Alignment : Split accross interleaves
Interleave, duration : 40 ms (1.00 video frame)
Interleave, preload duration : 500 ms.

Скриншоты


Альтернативный хост





Показать сообщения:    

Текущее время: 09-Дек 10:50

Часовой пояс: UTC + 3


Вы не можете начинать темы
Вы не можете отвечать на сообщения
Вы не можете редактировать свои сообщения
Вы не можете удалять свои сообщения
Вы не можете голосовать в опросах
Вы не можете прикреплять файлы к сообщениям
Вы не можете скачивать файлы