Алиса Фрейндлих. Нет объяснения у чуда (Ольга Высоцкая) [2014, Документальный, биография, искусство, SATRip]


Статистика раздачи [Обновить пиров]
Размер:  601 MB   |    Зарегистрирован:  8 месяцев 23 дня   |    Скачан:  0 раз

Полного источника не было: Никогда

 
   
 
 
 

[Цитировать]

Алиса Фрейндлих. Нет объяснения у чуда
Дата/Год выпуска: 2014
Страна: Россия, ВГТРК
Жанр: Документальный, биография, искусство
Продолжительность: 00:41:14
Перевод: Не требуется
Русские субтитры: нет
Режиссер: Ольга Высоцкая
Описание: 8 декабря юбилей у одной из самых любимых российских актрис Алисы Фрейндлих.
Она уже давно считается феноменом в театре, ее нельзя исследовать, ею можно только восхищаться и удивляться. В чем же кроется секрет этой замечательной актрисы? Кто бы ни говорил об Алисе Фрейндлих, все сходятся к одному: она - тайна. Хотя сама Алиса Бруновна так не считает...
Участвуют: Кама Гинкас, Генриетта Яновская, Андрей Хржановский, Евгений Миронов, Михаил Боярский, Григорий Дитятковский, Сергей Соловьев, Сергей Юрский, Андрей Могучий.
качество: SATRip
формат: AVI
Видео: 688x528 (1.30:1), 25 fps, XviD build 50 ~1899 kbps avg, 0.21 bit/pixel
Аудио: 48 kHz, MPEG Layer 3, 2 ch, ~128.00 kbps avg

MediaInfo

Complete name                            : C:\Users\Home\Desktop\Razdacha\Алиса Фрейндлих.Нет объяснения у чуда.2014.SATRip.avi
Format : AVI
Format/Info : Audio Video Interleave
File size : 601 MiB
Duration : 41mn 14s
Overall bit rate : 2 038 Kbps
Writing application : VirtualDubMod 1.5.10.3 | www.virtualdub-fr.org || (build 2550/release)
Writing library : VirtualDubMod build 2550/release
Video
ID : 0
Format : MPEG-4 Visual
Format profile : Advanced Simple@L5
Format settings, BVOP : 2
Format settings, QPel : No
Format settings, GMC : No warppoints
Format settings, Matrix : Default (MPEG)
Codec ID : XVID
Codec ID/Hint : XviD
Duration : 41mn 14s
Bit rate : 1 900 Kbps
Width : 688 pixels
Height : 528 pixels
Display aspect ratio : 4:3
Frame rate : 25.000 fps
Color space : YUV
Chroma subsampling : 4:2:0
Bit depth : 8 bits
Scan type : Progressive
Compression mode : Lossy
Bits/(Pixel*Frame) : 0.209
Stream size : 560 MiB (93%)
Writing library : XviD 1.2.1 (UTC 2008-12-04)
Audio
ID : 1
Format : MPEG Audio
Format version : Version 1
Format profile : Layer 3
Codec ID : 55
Codec ID/Hint : MP3
Duration : 41mn 14s
Bit rate mode : Constant
Bit rate : 128 Kbps
Channel count : 2 channels
Sampling rate : 48.0 KHz
Compression mode : Lossy
Stream size : 37.8 MiB (6%)
Alignment : Aligned on interleaves
Interleave, duration : 40 ms (1.00 video frame)
Interleave, preload duration : 504 ms
Writing library : LAME3.99r
Encoding settings : -m s -V 4 -q 2 -lowpass 17 -b 128

Скриншоты

[teatrix.ru].t19638.torrent 
Торрент: Зарегистрирован [ 2016-03-18 12:40 ] · F4932D94F3882F7A511629B0E5074D310FDFC185

Скачать .torrent

Скачать

12 KB

Статус: проверено
Скачан: 0 раз
Размер: 601 MB
terms.php



Быстрый ответ

Имя:

      
Для отправки сообщений необходимо включить JavaScript
Показать сообщения:    

Текущее время: 11-Дек 07:16

Часовой пояс: UTC + 3


Вы можете начинать темы
Вы можете отвечать на сообщения
Вы не можете редактировать свои сообщения
Вы не можете удалять свои сообщения
Вы не можете голосовать в опросах
Вы не можете прикреплять файлы к сообщениям
Вы можете скачивать файлы