(Classical) Handel - Saul (Beekman, Marcel; Cordier, David; MacLeod, Stephan; McFadden, Claron; Schlick, Barbara; Schoch, Knut; Schwarz, Gotthold; Joachim Carlos Martini) - 1998, FLAC (image+.cue) lossless


Статистика раздачи [Обновить пиров]
Размер:  783 MB   |    Зарегистрирован:  8 месяцев 19 дней   |    Скачан:  0 раз

Полного источника не было: Никогда

 
   
 
 
 

[Цитировать]

Handel - Saul (Joachim Carlos Martini)
Жанр: Classical
Страна-производитель диска: Germany
Год издания диска: 1998
Издатель (лейбл): Naxos
Номер по каталогу: 8.554361-63
Дата записи: 1997
Аудиокодек: FLAC
Тип рипа: image+.cue
Битрейт аудио: lossless
Продолжительность: 173:22
Источник: собственный рип
сайт-источник/ник/другое: Из личной коллекции
Наличие сканов в содержимом раздачи: да
Треклист:

скрытый текст

HANDEL: Saul, HWV 53
Jennens, Charles, lyricist(s)
Disc 1
1. Symphony: Allegro - Larghetto - Allegro - Andante larghetto 00:12:17
2. Act I Scene 1: How excellent Thy name, O Lord (Chorus) 00:02:57
3. Act I Scene 1: Air: An Infant rais'd by thy Command (Soprano) 00:01:20
4. Act I Scene 1: Trio: Along the Monster Atheist strode (Chorus) 00:01:02
5. Act I Scene 1: The Youth inspir'd by Thee, O Lord (Chorus) 00:01:50
6. Act I Scene 1: How excellent thy name, O Lord (Chorus) 00:02:33
7. Act I Scene 2: Recitative: He comes! (Michal) 00:00:10
8. Act I Scene 2: Air: O God - like Youth! (Michal) 00:03:12
9. Act I Scene 2: Recitative: Behold, O King… Young Man… The Son of Jesse (Abner, Saul, David) 00:00:58
10. Act I Scene 2: Air: O King, your Favours with Delight (David) 00:05:42
11. Act I Scene 2: Recitative: O early Piety! (Jonathan) 00:00:29
12. Act I Scene 2: Air: What abject Thoughts a Prince can have (Merab) 00:02:02
13. Act I Scene 2: Recitative: Yet think with whom this Honour you bestow (Merab) 00:00:14
14. Act I Scene 2: Air: Birth and Fortune I despise! (Jonathan) 00:04:17
15. Act I Scene 2: Recitative: Go on, illustrious Pair! (High Priest) 00:00:19
16. Act I Scene 2: Air: While yet thy Tide of Blood runs high (High Priest) 00:01:54
17. Act I Scene 2: Recitative: Thou, Merab, first in Birth (Saul) 00:00:25
18. Act I Scene 2: Air: My Soul rejects the Thought with scorn (Merab) 00:01:17
19. Act I Scene 2: Air: See with what a scornful Air (Michal) 00:01:05
20. Act I Scene 2: Air: Ah, lovely Youth! (Michal) 00:00:48
21. Act I Scene 3: Symphony: Andante allegro 00:01:10
22. Act I Scene 3: Recitative: Already see the Daughters of the Land (Michal) 00:00:21
23. Act I Scene 3: Welcome, welcome, mighty King! (Chorus) 00:01:34
24. Act I Scene 3: Accompagnato: What do I hear (Saul) 00:00:29
25. Act I Scene 3: David his Ten Thousands slew (Chorus) 00:00:31
26. Act I Scene 3: Accompagnato: To him Ten Thousands! (Saul) 00:00:15
27. Act I Scene 3: Air: With Rage I shall burst his Praises to hear! (Saul) 00:01:23
28. Act I Scene 4: Recitative: Imprudent Women!… 'Tis but his old Disease (Jonathan, Michal) 00:00:53
29. Act I Scene 4: Air: Fell Rage and black Despair possest (Michal) 00:02:43
30. Act I Scene 4: Recitative: This but the smallest part of Harmony (High Priest) 00:00:23
31. Act I Scene 4: Accompagnato: By thee this Universal Frame (High Priest) 00:01:59
32. Act I Scene 5: Recitative: Rack'd with Infernal Pains (Abner) 00:00:14
33. Act I Scene 5: Air: O Lord, whose Mercies numberless (David) 00:03:24
34. Act I Scene 5: Symphony (Arpa): Largo 00:01:32
35. Act I Scene 5: Air: Fly, malicious Spirit, fly (David) 00:02:06
36. Act I Scene 5: Recitative: 'Tis all in vain (Jonathan) 00:00:19
37. Act I Scene 5: Air: A Serpent, in my Bosom warm'd (Saul) 00:01:56
38. Act I Scene 5: Recitative: Has he escap'd my Rage (Saul) 00:00:30
39. Act I Scene 5: Air: Capricious Man, in Humour lost (Merab) 00:05:56
Disc 2
1. Act I Scene 6: Accompagnato: O Filial Piety! (Jonathan) 00:01:39
2. Act I Scene 6: Air: No, cruel Father, no (Jonathan) 00:01:36
3. Act I Scene 6: Air: O Lord, whose Providence (High Priest) 00:01:28
4. Act I Scene 6: Preserve him for the Glory of thy Name (Chorus) 00:02:18
5. Act II Scene 1: Envy! Eldest - born of Hell! (Chorus) 00:02:09
6. Act II Scene 2: Recitative: Ah, dearest Friend (Jonathan) 00:00:37
7. Act II Scene 2: Air: But sooner Jordan's Stream, I swear (Jonathan) 00:02:17
8. Act II Scene 2: Recitative: O strange Vicissitude!… My Sister Merab… (David, Jonathan) 00:00:58
9. Act II Scene 2: Air: Such haughty Beauties (David) 00:04:56
10. Act II Scene 2: Recitative: My Father comes (Jonathan) 00:00:16
11. Act II Scene 3: Recitative: Hast thou obey'd my orders… Alas, my Father! (Saul, Jonathan) 00:00:40
12. Act II Scene 3: Air: Sin not, O King, against the Youth (Jonathan) 00:01:59
13. Act II Scene 3: Air: As Great Jehovah lives, I swear (Saul) 00:01:05
14. Act II Scene 3: Air: From Cities storm'd, and Battles won (Jonathan) 00:02:00
15. Act II Scene 4: Recitative: Appear, my Friend… No more imagine Danger (Jonathan, Saul) 00:00:36
16. Act II Scene 4: Air: Your words, O King, my Loyal Heart (David) 00:01:06
17. Act II Scene 4: Recitative: Yes, he shall wed my Daughter! (Saul) 00:01:06
18. Act II Scene 5: Recitative: A Father's Will has authoriz'd my Love (Michal) 00:00:33
19. Act II Scene 5: Duet: O Fairest of ten thousand fair (Michal, David) 00:00:43
20. Act II Scene 5: Is there a Man, who all his Ways Directs (Chorus) 00:02:50
21. Act II Scene 5: Symphony: Largo - Allegro - 00:01:38
22. Act II Scene 5: Symphony: Gavotte 00:02:25
23. Act II Scene 6: Recitative: Thy Father is as cruel, and as false (David) 00:06:47
24. Act II Scene 6: Duet: At Persecution I can laugh (David, Michal) 00:02:25
25. Act II Scene 7: Recitative: Whom dost thou seek… I seek for David (Michal, Doeg) 00:00:41
26. Act II Scene 7: Air: No, no, let the Guilty tremble (Michal) 00:01:20
27. Act II Scene 8: Recitative: Mean as he was, he is my Brother now (Merab) 00:00:51
28. Act II Scene 8: Air: Author of Peace, who canst controll (Merab) 00:01:38
29. Act II Scene 9: Symphony: Allegro 00:00:45
30. Act II Scene 9: Accompagnato: The Time at length is come (Saul) 00:02:55
31. Act II Scene 10: Recitative: Where is the Son of Jesse… He earnestly asked Leave (Saul, Jonathan) 00:01:18
32. Act II Scene 10: O fatal Consequence (Chorus) 00:00:40
Disc 3
1. Act III Scene 1: Accompagnato: Wretch that I am! (Saul) 00:02:19
2. Act III Scene 1: Recitative and Accompagnato: 'Tis said, here lives a Woman (Saul) 00:00:50
3. Act III Scene 2: Recitative: With me what would'st thou… I wou'd (Witch of Endor, Saul) 00:00:51
4. Act III Scene 2: Air: Infernal Spirits, by wose Pow'r (Witch of Endor) 00:02:31
5. Act III Scene 3: Accompagnato: Why hast thou force'd me from the Realm of Peace… O holy Prophet, holy Prophet! (Samuel, Saul) 00:03:17
6. Act III Scene 3: Symphony: Allegro 00:00:41
7. Act III Scene 4: Recitative: Whence com'st thou… Out of the Camp of Israel (David, Amalekite) 00:01:17
8. Act III Scene 4: Air: Impious Wretch, of Race accurst! (David) 00:01:45
9. Act III Scene 5: March: Grave 00:03:01
10. Act III Scene 5: Mourn, Israel, mourn thy Beauty lost (Chorus) 00:02:35
11. Act III Scene 5: Air: O let it not in Gath be heard (High Priest) 00:02:33
12. Act III Scene 5: Air: From this unhappy Day (Merab) 00:02:35
13. Act III Scene 5: Air: Brave Jonathan his Bow ne'er drew (David) 00:02:17
14. Act III Scene 5: Eagles were not so swift as they (Chorus) 00:00:21
15. Act III Scene 5: Air: In sweetest Harmony they liv'd (Michal) 00:05:14
16. Act III Scene 5: O fatal Day! How low the Mighty lie! (David, Chorus) 00:04:57
17. Act III Scene 5: Air: Ye men of Judah, weep no more (High Priest) 00:01:43
18. Act III Scene 5: Gird on thy Sword, thou Man of Might (Chorus) 00:05:37
Total Playing Time: 02:51:08
Исполнители:
Conductor(s):
Martini, Joachim Carlos
Orchestra(s):
Frankfurt Baroque Orchestra
Choir(s):
Junge Kantorei
Artist(s):
Beekman, Marcel; Cordier, David; MacLeod, Stephan; McFadden, Claron; Schlick, Barbara; Schoch, Knut; Schwarz, Gotthold

Лог создания рипа

CD1

CD1
Exact Audio Copy V1.0 beta 3 from 29. August 2011
EAC extraction logfile from 2. December 2014, 20:51
George Frideric Händel / Saul (Disc 1)
Used drive : HL-DT-STDVDRAM GSA-T40N Adapter: 0 ID: 0
Read mode : Secure
Utilize accurate stream : Yes
Defeat audio cache : Yes
Make use of C2 pointers : No
Read offset correction : 667
Overread into Lead-In and Lead-Out : No
Fill up missing offset samples with silence : Yes
Delete leading and trailing silent blocks : No
Null samples used in CRC calculations : Yes
Used interface : Native Win32 interface for Win NT & 2000
Used output format : User Defined Encoder
Selected bitrate : 32 kBit/s
Quality : High
Add ID3 tag : No
Command line compressor : C:\Program Files\Exact Audio Copy\Flac\flac.exe
Additional command line options : -V -8 -T "Date=%year%" -T "Genre=%genre%" %source%
TOC of the extracted CD
Track | Start | Length | Start sector | End sector
---------------------------------------------------------
1 | 0:00.00 | 12:17.05 | 0 | 55279
2 | 12:17.05 | 2:57.57 | 55280 | 68611
3 | 15:14.62 | 1:19.60 | 68612 | 74596
4 | 16:34.47 | 1:01.35 | 74597 | 79206
5 | 17:36.07 | 1:50.03 | 79207 | 87459
6 | 19:26.10 | 2:33.57 | 87460 | 98991
7 | 21:59.67 | 0:09.65 | 98992 | 99731
8 | 22:09.57 | 3:11.45 | 99732 | 114101
9 | 25:21.27 | 0:57.70 | 114102 | 118446
10 | 26:19.22 | 5:41.73 | 118447 | 144094
11 | 32:01.20 | 0:29.30 | 144095 | 146299
12 | 32:30.50 | 2:01.45 | 146300 | 155419
13 | 34:32.20 | 0:13.60 | 155420 | 156454
14 | 34:46.05 | 4:17.60 | 156455 | 175789
15 | 39:03.65 | 0:18.40 | 175790 | 177179
16 | 39:22.30 | 1:53.72 | 177180 | 185726
17 | 41:16.27 | 0:25.25 | 185727 | 187626
18 | 41:41.52 | 1:16.70 | 187627 | 193396
19 | 42:58.47 | 1:05.23 | 193397 | 198294
20 | 44:03.70 | 0:47.65 | 198295 | 201884
21 | 44:51.60 | 1:09.35 | 201885 | 207094
22 | 46:01.20 | 0:21.14 | 207095 | 208683
23 | 46:22.34 | 1:33.61 | 208684 | 215719
24 | 47:56.20 | 0:28.67 | 215720 | 217886
25 | 48:25.12 | 0:31.35 | 217887 | 220246
26 | 48:56.47 | 0:14.50 | 220247 | 221346
27 | 49:11.22 | 1:22.58 | 221347 | 227554
28 | 50:34.05 | 0:53.67 | 227555 | 231596
29 | 51:27.72 | 2:42.55 | 231597 | 243801
30 | 54:10.52 | 0:22.23 | 243802 | 245474
31 | 54:33.00 | 1:59.05 | 245475 | 254404
32 | 56:32.05 | 0:14.45 | 254405 | 255499
33 | 56:46.50 | 3:24.22 | 255500 | 270821
34 | 60:10.72 | 1:31.58 | 270822 | 277704
35 | 61:42.55 | 2:05.45 | 277705 | 287124
36 | 63:48.25 | 0:19.00 | 287125 | 288549
37 | 64:07.25 | 1:56.22 | 288550 | 297271
38 | 66:03.47 | 0:30.20 | 297272 | 299541
39 | 66:33.67 | 5:55.13 | 299542 | 326179
Range status and errors
Selected range
Filename D:\Rip\Handel.Saul-Joachim_Carlos_Martini,1997.3CD(Naxos,8.554361-63)\CD1\George Frideric Händel - Saul (Disc 1).wav
Peak level 100.0 %
Extraction speed 4.2 X
Range quality 100.0 %
Test CRC AB702CFB
Copy CRC AB702CFB
Copy OK
No errors occurred
AccurateRip summary
Track 1 accurately ripped (confidence 2) [6FEC5FEA] (AR v1)
Track 2 accurately ripped (confidence 2) [BE5F6778] (AR v1)
Track 3 accurately ripped (confidence 2) [D0A35130] (AR v1)
Track 4 accurately ripped (confidence 2) [C1B5446E] (AR v1)
Track 5 accurately ripped (confidence 2) [68BC9224] (AR v1)
Track 6 accurately ripped (confidence 2) [294B4C20] (AR v1)
Track 7 accurately ripped (confidence 2) [380EF3C8] (AR v1)
Track 8 accurately ripped (confidence 2) [04CD6A7C] (AR v1)
Track 9 accurately ripped (confidence 2) [79A47CA8] (AR v1)
Track 10 accurately ripped (confidence 2) [7B90D444] (AR v1)
Track 11 accurately ripped (confidence 2) [0AE33279] (AR v1)
Track 12 accurately ripped (confidence 2) [B86FCAFB] (AR v1)
Track 13 accurately ripped (confidence 2) [00A284DB] (AR v1)
Track 14 cannot be verified as accurate (confidence 2) [F91F2C5A], AccurateRip returned [D6F822EF] (AR v2)
Track 15 accurately ripped (confidence 2) [362099DA] (AR v1)
Track 16 accurately ripped (confidence 2) [9425A9A3] (AR v1)
Track 17 accurately ripped (confidence 2) [D10F7C4D] (AR v1)
Track 18 accurately ripped (confidence 2) [2C176CD1] (AR v1)
Track 19 accurately ripped (confidence 2) [614735B6] (AR v1)
Track 20 accurately ripped (confidence 2) [43D12C57] (AR v1)
Track 21 accurately ripped (confidence 2) [C51329EE] (AR v1)
Track 22 cannot be verified as accurate (confidence 2) [F1853F2C], AccurateRip returned [BFF39B56] (AR v2)
Track 23 cannot be verified as accurate (confidence 2) [76CD079F], AccurateRip returned [368EF473] (AR v2)
Track 24 accurately ripped (confidence 2) [70AC6898] (AR v1)
Track 25 accurately ripped (confidence 2) [9073BC19] (AR v1)
Track 26 accurately ripped (confidence 2) [8FAB8038] (AR v1)
Track 27 accurately ripped (confidence 2) [EF7BE314] (AR v1)
Track 28 accurately ripped (confidence 2) [962F0325] (AR v1)
Track 29 accurately ripped (confidence 2) [17D9E806] (AR v1)
Track 30 accurately ripped (confidence 2) [9AF5D3B6] (AR v1)
Track 31 cannot be verified as accurate (confidence 2) [4FBF0955], AccurateRip returned [EEDE285D] (AR v2)
Track 32 accurately ripped (confidence 2) [CDB83B84] (AR v1)
Track 33 accurately ripped (confidence 2) [A78E5453] (AR v1)
Track 34 accurately ripped (confidence 2) [04AEA8D3] (AR v1)
Track 35 accurately ripped (confidence 2) [004DF5DA] (AR v1)
Track 36 accurately ripped (confidence 2) [2DC54EDE] (AR v1)
Track 37 accurately ripped (confidence 2) [DCA375F8] (AR v1)
Track 38 accurately ripped (confidence 2) [52656379] (AR v1)
Track 39 accurately ripped (confidence 2) [A6C7CD55] (AR v1)
35 трек(и) скопированы точно
4 трек(и) не удалось проверить на точность
Some tracks could not be verified as accurate
End of status report
==== Log checksum BF758962FBE1A95876695808B81E8DF17061DAB377A131DD3D3BF57F01CD0C42 ====

CD2

CD2
Exact Audio Copy V1.0 beta 3 from 29. August 2011
EAC extraction logfile from 2. December 2014, 21:35
George Frideric Händel / Saul (Disc 2)
Used drive : HL-DT-STDVDRAM GSA-T40N Adapter: 0 ID: 0
Read mode : Secure
Utilize accurate stream : Yes
Defeat audio cache : Yes
Make use of C2 pointers : No
Read offset correction : 667
Overread into Lead-In and Lead-Out : No
Fill up missing offset samples with silence : Yes
Delete leading and trailing silent blocks : No
Null samples used in CRC calculations : Yes
Used interface : Native Win32 interface for Win NT & 2000
Used output format : User Defined Encoder
Selected bitrate : 32 kBit/s
Quality : High
Add ID3 tag : No
Command line compressor : C:\Program Files\Exact Audio Copy\Flac\flac.exe
Additional command line options : -V -8 -T "Date=%year%" -T "Genre=%genre%" %source%
TOC of the extracted CD
Track | Start | Length | Start sector | End sector
---------------------------------------------------------
1 | 0:00.00 | 1:39.50 | 0 | 7474
2 | 1:39.50 | 1:36.02 | 7475 | 14676
3 | 3:15.52 | 1:27.58 | 14677 | 21259
4 | 4:43.35 | 2:17.70 | 21260 | 31604
5 | 7:01.30 | 2:09.07 | 31605 | 41286
6 | 9:10.37 | 0:36.58 | 41287 | 44044
7 | 9:47.20 | 2:17.07 | 44045 | 54326
8 | 12:04.27 | 0:58.10 | 54327 | 58686
9 | 13:02.37 | 4:56.10 | 58687 | 80896
10 | 17:58.47 | 0:16.03 | 80897 | 82099
11 | 18:14.50 | 0:39.45 | 82100 | 85069
12 | 18:54.20 | 1:59.47 | 85070 | 94041
13 | 20:53.67 | 1:04.13 | 94042 | 98854
14 | 21:58.05 | 2:00.60 | 98855 | 107914
15 | 23:58.65 | 0:35.37 | 107915 | 110576
16 | 24:34.27 | 1:06.10 | 110577 | 115536
17 | 25:40.37 | 0:33.17 | 115537 | 118028
18 | 26:13.54 | 0:42.63 | 118029 | 121241
19 | 26:56.42 | 2:49.45 | 121242 | 133961
20 | 29:46.12 | 1:38.10 | 133962 | 141321
21 | 31:24.22 | 6:47.10 | 141322 | 171856
22 | 38:11.32 | 2:25.18 | 171857 | 182749
23 | 40:36.50 | 0:41.12 | 182750 | 185836
24 | 41:17.62 | 1:19.30 | 185837 | 191791
25 | 42:37.17 | 0:51.38 | 191792 | 195654
26 | 43:28.55 | 1:37.42 | 195655 | 202971
27 | 45:06.22 | 0:45.30 | 202972 | 206376
28 | 45:51.52 | 2:54.48 | 206377 | 219474
29 | 48:46.25 | 1:18.37 | 219475 | 225361
30 | 50:04.62 | 0:40.10 | 225362 | 228371
31 | 50:44.72 | 1:14.48 | 228372 | 233969
32 | 51:59.45 | 4:22.20 | 233970 | 253639
Range status and errors
Selected range
Filename D:\Rip\Handel.Saul-Joachim_Carlos_Martini,1997.3CD(Naxos,8.554361-63)\CD2\George Frideric Händel - Saul (Disc 2).wav
Peak level 100.0 %
Extraction speed 4.2 X
Range quality 100.0 %
Test CRC 81A0505D
Copy CRC 81A0505D
Copy OK
No errors occurred
AccurateRip summary
Track 1 accurately ripped (confidence 2) [0DBE15A7] (AR v1)
Track 2 accurately ripped (confidence 2) [9E805A7F] (AR v1)
Track 3 accurately ripped (confidence 2) [34571D83] (AR v1)
Track 4 accurately ripped (confidence 2) [59C731D5] (AR v1)
Track 5 accurately ripped (confidence 2) [F9A31721] (AR v1)
Track 6 accurately ripped (confidence 2) [D879260F] (AR v1)
Track 7 accurately ripped (confidence 2) [AF1DDE98] (AR v1)
Track 8 accurately ripped (confidence 2) [41707918] (AR v1)
Track 9 accurately ripped (confidence 2) [BE4DE020] (AR v1)
Track 10 accurately ripped (confidence 2) [9AB6C584] (AR v1)
Track 11 accurately ripped (confidence 2) [977B93A5] (AR v1)
Track 12 accurately ripped (confidence 2) [D689766C] (AR v1)
Track 13 accurately ripped (confidence 2) [EAA508D1] (AR v1)
Track 14 accurately ripped (confidence 2) [F5DADD8F] (AR v1)
Track 15 accurately ripped (confidence 2) [D40AA027] (AR v1)
Track 16 accurately ripped (confidence 2) [D0193F46] (AR v1)
Track 17 accurately ripped (confidence 2) [222D21D3] (AR v1)
Track 18 accurately ripped (confidence 2) [95C8094E] (AR v1)
Track 19 accurately ripped (confidence 2) [377A2E79] (AR v1)
Track 20 accurately ripped (confidence 2) [53767B05] (AR v1)
Track 21 accurately ripped (confidence 2) [2056C447] (AR v1)
Track 22 accurately ripped (confidence 2) [E248034F] (AR v1)
Track 23 accurately ripped (confidence 2) [DF798AD2] (AR v1)
Track 24 accurately ripped (confidence 2) [C012FD51] (AR v1)
Track 25 accurately ripped (confidence 2) [409D4518] (AR v1)
Track 26 accurately ripped (confidence 2) [00342389] (AR v1)
Track 27 accurately ripped (confidence 2) [93279B83] (AR v1)
Track 28 accurately ripped (confidence 2) [BA45F6C6] (AR v1)
Track 29 accurately ripped (confidence 2) [38EBF89C] (AR v1)
Track 30 accurately ripped (confidence 2) [67DD0913] (AR v1)
Track 31 accurately ripped (confidence 2) [64CAF9F1] (AR v1)
Track 32 accurately ripped (confidence 2) [7FF81771] (AR v1)
All tracks accurately ripped
End of status report
==== Log checksum CB3961FD37D76B30FB5602D077116A67E0052DCFDC775B1474281BBA28E967DA ====

CD3

CD3
Exact Audio Copy V1.0 beta 3 from 29. August 2011
EAC extraction logfile from 3. December 2014, 19:24
George Frideric Händel / Saul (Disc 3)
Used drive : HL-DT-STDVDRAM GSA-T40N Adapter: 0 ID: 0
Read mode : Secure
Utilize accurate stream : Yes
Defeat audio cache : Yes
Make use of C2 pointers : No
Read offset correction : 667
Overread into Lead-In and Lead-Out : No
Fill up missing offset samples with silence : Yes
Delete leading and trailing silent blocks : No
Null samples used in CRC calculations : Yes
Used interface : Native Win32 interface for Win NT & 2000
Used output format : User Defined Encoder
Selected bitrate : 32 kBit/s
Quality : High
Add ID3 tag : No
Command line compressor : C:\Program Files\Exact Audio Copy\Flac\flac.exe
Additional command line options : -V -8 -T "Date=%year%" -T "Genre=%genre%" %source%
TOC of the extracted CD
Track | Start | Length | Start sector | End sector
---------------------------------------------------------
1 | 0:00.00 | 2:19.42 | 0 | 10466
2 | 2:19.42 | 0:49.73 | 10467 | 14214
3 | 3:09.40 | 0:51.12 | 14215 | 18051
4 | 4:00.52 | 2:30.55 | 18052 | 29356
5 | 6:31.32 | 3:17.40 | 29357 | 44171
6 | 9:48.72 | 0:40.40 | 44172 | 47211
7 | 10:29.37 | 1:16.65 | 47212 | 52976
8 | 11:46.27 | 1:45.40 | 52977 | 60891
9 | 13:31.67 | 3:00.43 | 60892 | 74434
10 | 16:32.35 | 2:34.67 | 74435 | 86051
11 | 19:07.27 | 2:33.48 | 86052 | 97574
12 | 21:41.00 | 2:34.52 | 97575 | 109176
13 | 24:15.52 | 2:17.10 | 109177 | 119461
14 | 26:32.62 | 0:20.25 | 119462 | 120986
15 | 26:53.12 | 5:14.20 | 120987 | 144556
16 | 32:07.32 | 4:57.20 | 144557 | 166851
17 | 37:04.52 | 1:42.48 | 166852 | 174549
18 | 38:47.25 | 5:37.42 | 174550 | 199866
Range status and errors
Selected range
Filename D:\Rip\Handel.Saul-Joachim_Carlos_Martini,1997.3CD(Naxos,8.554361-63)\CD3\George Frideric Händel - Saul (Disc 3).wav
Peak level 100.0 %
Extraction speed 3.9 X
Range quality 100.0 %
Test CRC 26D520D8
Copy CRC 26D520D8
Copy OK
No errors occurred
AccurateRip summary
Track 1 accurately ripped (confidence 2) [9231CBF1] (AR v1)
Track 2 accurately ripped (confidence 2) [E5B67FD2] (AR v1)
Track 3 accurately ripped (confidence 2) [B2F9C68C] (AR v1)
Track 4 accurately ripped (confidence 2) [5463AA50] (AR v1)
Track 5 accurately ripped (confidence 2) [726B464C] (AR v1)
Track 6 accurately ripped (confidence 2) [741FF461] (AR v1)
Track 7 accurately ripped (confidence 2) [8DE3BF98] (AR v1)
Track 8 accurately ripped (confidence 2) [5F68337D] (AR v1)
Track 9 accurately ripped (confidence 2) [967756DF] (AR v1)
Track 10 accurately ripped (confidence 2) [54AF7B47] (AR v1)
Track 11 accurately ripped (confidence 2) [CC3305E2] (AR v1)
Track 12 accurately ripped (confidence 2) [E75CCCBC] (AR v1)
Track 13 accurately ripped (confidence 2) [2AB3BF56] (AR v1)
Track 14 accurately ripped (confidence 2) [C9267DFD] (AR v1)
Track 15 accurately ripped (confidence 2) [241333CA] (AR v1)
Track 16 accurately ripped (confidence 2) [821BDC3A] (AR v1)
Track 17 accurately ripped (confidence 2) [3A2B5DA5] (AR v1)
Track 18 accurately ripped (confidence 2) [1F902EA4] (AR v1)
All tracks accurately ripped
End of status report
==== Log checksum D2AB144EF579923A9B3361E24DD8363113440CC1F73F6B0D83D110331F3548F5 ====

Содержание индексной карты (.CUE)

CD1

CD1
REM GENRE Classical
REM DATE 1998
REM DISCID 8010FD27
REM COMMENT "ExactAudioCopy v1.0b3"
PERFORMER "George Frideric Handel"
TITLE "Saul (Disc 1)"
FILE "George Frideric Handel - Saul (Disc 1).flac" WAVE
TRACK 01 AUDIO
TITLE "Symphony: Allegro - Larghetto - Allegro - Andante Larghetto"
PERFORMER "George Frideric Handel"
INDEX 01 00:00:00
TRACK 02 AUDIO
TITLE "Act I: Scene 1: No. 1, Chorus: A Tempo Giusto"
PERFORMER "George Frideric Handel"
INDEX 01 12:17:05
TRACK 03 AUDIO
TITLE "Act I: Scene 1: No. 2, Air: Larghetto"
PERFORMER "George Frideric Handel"
INDEX 01 15:14:62
TRACK 04 AUDIO
TITLE "Act I: Scene 1: No. 3, Trio: Ardito Forte"
PERFORMER "George Frideric Handel"
INDEX 01 16:34:47
TRACK 05 AUDIO
TITLE "Act I: Scene 1: No. 4, Chorus: Larghetto"
PERFORMER "George Frideric Handel"
INDEX 01 17:36:07
TRACK 06 AUDIO
TITLE "Act I: Scene 1: No. 5, Chorus: A Tempo Giusto"
PERFORMER "George Frideric Handel"
INDEX 01 19:26:10
TRACK 07 AUDIO
TITLE "Act I: Scene 2: No. 6, Recitative"
PERFORMER "George Frideric Handel"
INDEX 01 21:59:67
TRACK 08 AUDIO
TITLE "Act I: Scene 2: No. 7, Air: Larghetto"
PERFORMER "George Frideric Handel"
INDEX 01 22:09:57
TRACK 09 AUDIO
TITLE "Act I: Scene 2: No. 8, Recitative"
PERFORMER "George Frideric Handel"
INDEX 01 25:21:27
TRACK 10 AUDIO
TITLE "Act I: Scene 2: No. 9, Air: Larghetto"
PERFORMER "George Frideric Handel"
INDEX 01 26:19:22
TRACK 11 AUDIO
TITLE "Act I: Scene 2: No. 10, Recitative"
PERFORMER "George Frideric Handel"
INDEX 01 32:01:20
TRACK 12 AUDIO
TITLE "Act I: Scene 2: No. 11, Air: Andante"
PERFORMER "George Frideric Handel"
INDEX 01 32:30:50
TRACK 13 AUDIO
TITLE "Act I: Scene 2: No. 12, Recitative"
PERFORMER "George Frideric Handel"
INDEX 01 34:32:20
TRACK 14 AUDIO
TITLE "Act I: Scene 2: No. 13, Air: Allegro"
PERFORMER "George Frideric Handel"
INDEX 01 34:46:05
TRACK 15 AUDIO
TITLE "Act I: Scene 2: No. 14, Recitative"
PERFORMER "George Frideric Handel"
INDEX 01 39:03:65
TRACK 16 AUDIO
TITLE "Act I: Scene 2: No. 15, Air: Largo"
PERFORMER "George Frideric Handel"
INDEX 01 39:22:30
TRACK 17 AUDIO
TITLE "Act I: Scene 2: No. 16, Recitative"
PERFORMER "George Frideric Handel"
INDEX 01 41:16:27
TRACK 18 AUDIO
TITLE "Act I: Scene 2: No. 17, Air: Allegro"
PERFORMER "George Frideric Handel"
INDEX 01 41:41:52
TRACK 19 AUDIO
TITLE "Act I: Scene 2: No. 18, Air: Moderato"
PERFORMER "George Frideric Handel"
INDEX 01 42:58:47
TRACK 20 AUDIO
TITLE "Act I: Scene 2: No. 19, Air: Larghetto"
PERFORMER "George Frideric Handel"
INDEX 01 44:03:70
TRACK 21 AUDIO
TITLE "Act I: Scene 3: No. 20, Symphony: Andante Allegro"
PERFORMER "George Frideric Handel"
INDEX 01 44:51:60
TRACK 22 AUDIO
TITLE "Act I: Scene 3: No. 21, Recitative"
PERFORMER "George Frideric Handel"
INDEX 01 46:01:20
TRACK 23 AUDIO
TITLE "Act I: Scene 3: No. 22, Chorus: Andante Allegro"
PERFORMER "George Frideric Handel"
INDEX 01 46:22:34
TRACK 24 AUDIO
TITLE "Act I: Scene 3: No. 23, Accompagnato"
PERFORMER "George Frideric Handel"
INDEX 01 47:56:20
TRACK 25 AUDIO
TITLE "Act I: Scene 3: No. 24, Chorus: Andante Allegro"
PERFORMER "George Frideric Handel"
INDEX 01 48:25:12
TRACK 26 AUDIO
TITLE "Act I: Scene 3: No. 25, Accompagnato"
PERFORMER "George Frideric Handel"
INDEX 01 48:56:47
TRACK 27 AUDIO
TITLE "Act I: Scene 3: No. 26, Air: Andante Allegro"
PERFORMER "George Frideric Handel"
INDEX 01 49:11:22
TRACK 28 AUDIO
TITLE "Act I: Scene 4: No. 27, Recitative"
PERFORMER "George Frideric Handel"
INDEX 01 50:34:05
TRACK 29 AUDIO
TITLE "Act I: Scene 4: No. 28, Air: Larghetto"
PERFORMER "George Frideric Handel"
INDEX 01 51:27:72
TRACK 30 AUDIO
TITLE "Act I: Scene 4: No. 29, Recitative"
PERFORMER "George Frideric Handel"
INDEX 01 54:10:52
TRACK 31 AUDIO
TITLE "Act I: Scene 4: No. 30, Accompagnato"
PERFORMER "George Frideric Handel"
INDEX 01 54:33:00
TRACK 32 AUDIO
TITLE "Act I: Scene 5: No. 31, Recitative"
PERFORMER "George Frideric Handel"
INDEX 01 56:32:05
TRACK 33 AUDIO
TITLE "Act I: Scene 5: No. 31a, Air: Largo"
PERFORMER "George Frideric Handel"
INDEX 01 56:46:50
TRACK 34 AUDIO
TITLE "Act I: Scene 5: No. 32, Symphony (Arpa): Largo"
PERFORMER "George Frideric Handel"
INDEX 01 60:10:72
TRACK 35 AUDIO
TITLE "Act I: Scene 5: No. 33, Air: Allegro"
PERFORMER "George Frideric Handel"
INDEX 01 61:42:55
TRACK 36 AUDIO
TITLE "Act I: Scene 5: No. 34, Recitative"
PERFORMER "George Frideric Handel"
INDEX 01 63:48:25
TRACK 37 AUDIO
TITLE "Act I: Scene 5: No. 35, Air: Allegro"
PERFORMER "George Frideric Handel"
INDEX 01 64:07:25
TRACK 38 AUDIO
TITLE "Act I: Scene 5: No. 36, Recitative"
PERFORMER "George Frideric Handel"
INDEX 01 66:03:47
TRACK 39 AUDIO
TITLE "Act I: Scene 5: No. 37, Air: Allegro"
PERFORMER "George Frideric Handel"
INDEX 01 66:33:67

CD2

CD2
REM GENRE classical
REM DATE 1998
REM DISCID CA0D3520
REM COMMENT "ExactAudioCopy v1.0b3"
PERFORMER "George Frideric Handel"
TITLE "Saul (Disc 2)"
FILE "George Frideric Handel - Saul (Disc 2).flac" WAVE
TRACK 01 AUDIO
TITLE "40 Act 1, Scene 6 - 38, Accompagnato: Lento"
PERFORMER "George Frideric Handel"
INDEX 01 00:00:00
TRACK 02 AUDIO
TITLE "41 Act 1, Scene 6 - 39, Air: Larghetto"
PERFORMER "George Frideric Handel"
INDEX 01 01:39:50
TRACK 03 AUDIO
TITLE "42 Act 1, Scene 6 - 40, Air: Larghetto"
PERFORMER "George Frideric Handel"
INDEX 01 03:15:52
TRACK 04 AUDIO
TITLE "43 Act 1, Scene 6 - 41, Chorus: Allegro"
PERFORMER "George Frideric Handel"
INDEX 01 04:43:35
TRACK 05 AUDIO
TITLE "44 Act 2, Scene 1 - 42, Chorus: Andante larghetto"
PERFORMER "George Frideric Handel"
INDEX 01 07:01:30
TRACK 06 AUDIO
TITLE "45 Act 2, Scene 2 - 43, Recitative"
PERFORMER "George Frideric Handel"
INDEX 01 09:10:37
TRACK 07 AUDIO
TITLE "46 Act 2, Scene 2 - 44, Air: Allegro moderato"
PERFORMER "George Frideric Handel"
INDEX 01 09:47:20
TRACK 08 AUDIO
TITLE "47 Act 2, Scene 2 - 45, Recitative"
PERFORMER "George Frideric Handel"
INDEX 01 12:04:27
TRACK 09 AUDIO
TITLE "48 Act 2, Scene 2 - 46, Air: Moderato"
PERFORMER "George Frideric Handel"
INDEX 01 13:02:37
TRACK 10 AUDIO
TITLE "49 Act 2, Scene 2 - 47, Recitative"
PERFORMER "George Frideric Handel"
INDEX 01 17:58:47
TRACK 11 AUDIO
TITLE "50 Act 2, Scene 3 - 48, Recitative"
PERFORMER "George Frideric Handel"
INDEX 01 18:14:50
TRACK 12 AUDIO
TITLE "51 Act 2, Scene 3 - 49, Air: Largo"
PERFORMER "George Frideric Handel"
INDEX 01 18:54:20
TRACK 13 AUDIO
TITLE "52 Act 2, Scene 3 - 50, Air: Andante"
PERFORMER "George Frideric Handel"
INDEX 01 20:53:67
TRACK 14 AUDIO
TITLE "53 Act 2, Scene 3 - 51, Air: Largo"
PERFORMER "George Frideric Handel"
INDEX 01 21:58:05
TRACK 15 AUDIO
TITLE "54 Act 2, Scene 4 - 52, Recitative & 53, Air: Allegro"
PERFORMER "George Frideric Handel"
INDEX 01 23:58:65
TRACK 16 AUDIO
TITLE "55 Act 2, Scene 4 - 53, Air: Allegro"
PERFORMER "George Frideric Handel"
INDEX 01 24:34:27
TRACK 17 AUDIO
TITLE "56 Act 2, Scene 4 - 54, Recitative"
PERFORMER "George Frideric Handel"
INDEX 01 25:40:37
TRACK 18 AUDIO
TITLE "57 Act 2, Scene 5 - 55, Recitative"
PERFORMER "George Frideric Handel"
INDEX 01 26:13:54
TRACK 19 AUDIO
TITLE "58 Act 2, Scene 5 - 56, Duet: Andante"
PERFORMER "George Frideric Handel"
INDEX 01 26:56:42
TRACK 20 AUDIO
TITLE "59 Act 2, Scene 5 - 57, Chorus"
PERFORMER "George Frideric Handel"
INDEX 01 29:46:12
TRACK 21 AUDIO
TITLE "60 Act 2, Scene 5 - 58, Symphony: Largo - Allegro - Gavotte"
PERFORMER "George Frideric Handel"
INDEX 01 31:24:22
TRACK 22 AUDIO
TITLE "61 Scene the Sixth"
PERFORMER "George Frideric Handel"
INDEX 01 38:11:32
TRACK 23 AUDIO
TITLE "62 Act 2, Scene 6 - 59, Recitative"
PERFORMER "George Frideric Handel"
INDEX 01 40:36:50
TRACK 24 AUDIO
TITLE "63 Act 2, Scene 6 - 60, Duet: Allegro ma non troppo"
PERFORMER "George Frideric Handel"
INDEX 01 41:17:62
TRACK 25 AUDIO
TITLE "64 Act 2, Scene 7 - 61, Recitative"
PERFORMER "George Frideric Handel"
INDEX 01 42:37:17
TRACK 26 AUDIO
TITLE "65 Act 2, Scene 7 - 62, Air: Allegro"
PERFORMER "George Frideric Handel"
INDEX 01 43:28:55
TRACK 27 AUDIO
TITLE "66 Act 2, Scene 8 - 63, Recitative"
PERFORMER "George Frideric Handel"
INDEX 01 45:06:22
TRACK 28 AUDIO
TITLE "67 Act 2, Scene 8 - 64, Air: Largo assai"
PERFORMER "George Frideric Handel"
INDEX 01 45:51:52
TRACK 29 AUDIO
TITLE "68 Act 2, Scene 9 - 65, Symphony: Allegro"
PERFORMER "George Frideric Handel"
INDEX 01 48:46:25
TRACK 30 AUDIO
TITLE "69 Act 2, Scene 9 - 66, Accompagnato"
PERFORMER "George Frideric Handel"
INDEX 01 50:04:62
TRACK 31 AUDIO
TITLE "70 Act 2, Scene 10 - 67, Recitative"
PERFORMER "George Frideric Handel"
INDEX 01 50:44:72
TRACK 32 AUDIO
TITLE "71 Act 2, Scene 10 - 68, Chorus: A tempo giusto"
PERFORMER "George Frideric Handel"
INDEX 01 51:59:45

CD3

CD3
REM GENRE classical
REM DATE 1998
REM DISCID EB0A6812
REM COMMENT "ExactAudioCopy v1.0b3"
PERFORMER "George Frideric Handel"
TITLE "Saul (Disc 3)"
FILE "George Frideric Handel - Saul (Disc 3).flac" WAVE
TRACK 01 AUDIO
TITLE "72 Act 2, Scene 1 - 69, Accompagnato, Largo"
PERFORMER "George Frideric Handel"
INDEX 01 00:00:00
TRACK 02 AUDIO
TITLE "73 Act 2, Scene 1 - 70, Recitative and Accompagnato"
PERFORMER "George Frideric Handel"
INDEX 01 02:19:42
TRACK 03 AUDIO
TITLE "74 Act 3, Scene 2 - 71, Reciative, Witch (Woman of Endor)"
PERFORMER "George Frideric Handel"
INDEX 01 03:09:40
TRACK 04 AUDIO
TITLE "75 Act 3, Scene 2 - 72, Air, Witch (Woman of Endor)"
PERFORMER "George Frideric Handel"
INDEX 01 04:00:52
TRACK 05 AUDIO
TITLE "76 Act 3, Scene 3 - 73, Accompagnato, Largo"
PERFORMER "George Frideric Handel"
INDEX 01 06:31:32
TRACK 06 AUDIO
TITLE "77 Act 3, Scene 3 - 74, Symphony, Allegro"
PERFORMER "George Frideric Handel"
INDEX 01 09:48:72
TRACK 07 AUDIO
TITLE "78 Act 3, Scene 4 - 75, Reciative"
PERFORMER "George Frideric Handel"
INDEX 01 10:29:37
TRACK 08 AUDIO
TITLE "79 Act 3, Scene 4 - 76, Air, David"
PERFORMER "George Frideric Handel"
INDEX 01 11:46:27
TRACK 09 AUDIO
TITLE "80 Act 3, Scene 5 - 77, March, Grave"
PERFORMER "George Frideric Handel"
INDEX 01 13:31:67
TRACK 10 AUDIO
TITLE "81 Act 3, Scene 5 - 78, Chorus, Largo assai"
PERFORMER "George Frideric Handel"
INDEX 01 16:32:35
TRACK 11 AUDIO
TITLE "82 Act 3, Scene 5 - 79, Air, Lento"
PERFORMER "George Frideric Handel"
INDEX 01 19:07:27
TRACK 12 AUDIO
TITLE "83 Act 3, Scene 5 - 80, Air, Largo e piano"
PERFORMER "George Frideric Handel"
INDEX 01 21:41:00
TRACK 13 AUDIO
TITLE "84 Act 3, Scene 5 - 81, Air, Largo"
PERFORMER "George Frideric Handel"
INDEX 01 24:15:52
TRACK 14 AUDIO
TITLE "85 Act 3, Scene 5 - 82, Corus, Allegro"
PERFORMER "George Frideric Handel"
INDEX 01 26:32:62
TRACK 15 AUDIO
TITLE "86 Act 3, Scene 5 - 83, Air, A tempo guisto"
PERFORMER "George Frideric Handel"
INDEX 01 26:53:12
TRACK 16 AUDIO
TITLE "87 Act 3, Scene 5 - 84, Solo and Chours, A tempo giusto"
PERFORMER "George Frideric Handel"
INDEX 01 32:07:32
TRACK 17 AUDIO
TITLE "88 Act 3, Scene 5 - 85, Air"
PERFORMER "George Frideric Handel"
INDEX 01 37:04:52
TRACK 18 AUDIO
TITLE "89 Act 3, Scene 5 - 86, Chorus, Allegro"
PERFORMER "George Frideric Handel"
INDEX 01 38:47:25
[teatrix.ru].t19639.torrent 
Торрент: Зарегистрирован [ 2016-03-18 12:40 ] · B25EE52603E0555BAAA4839FB52D19FACE69B075

Скачать .torrent

Скачать

18 KB

Статус: проверено
Скачан: 0 раз
Размер: 783 MB
terms.php



Быстрый ответ

Имя:

      
Для отправки сообщений необходимо включить JavaScript
Показать сообщения:    

Текущее время: 06-Дек 19:03

Часовой пояс: UTC + 3


Вы можете начинать темы
Вы можете отвечать на сообщения
Вы не можете редактировать свои сообщения
Вы не можете удалять свои сообщения
Вы не можете голосовать в опросах
Вы не можете прикреплять файлы к сообщениям
Вы можете скачивать файлы