После грехопадения (Сергей Яшин, Владимир Боголепов) [1994 г., Драма, SATRip] Московский драматический театр им. Н.В.Гоголя


 

[Цитировать]

После грехопадения (2 части) Название театра: Московский драматический театр им. Н.В.Гоголя.
Год выпуска: 1994.
Жанр: Драма.
Продолжительность: 01:02:45 + 01:10:39 (02:13:24).
Режиссер: заслуженный деятель искусств России, народный артист России Сергей Яшин, заслуженный деятель искусств России Владимир Боголепов.
В ролях:
Леонид Кулагин, Светлана Брагарник, Ян Краснянский, Ольга Забара, Виталий Краснов, Ольга Науменко, Янис Якобсон, Евгений Меньшов, Ирина Выборнова, Галина Щепетнова, Владимир Прянчин.
О спектакле:
Через три года после смерти Мэрилин Монро Артур Миллер написал пьесу "После грехопадения", посвященную его неудачному браку с актрисой. Это был критический взгляд на актрису, пьеса "выпячивала" нервность, неустойчивость характера Монро. На парижской премьере спектакля "После грехопадения" Миллера освистали и забросали яйцами. Мэрилин слишком любили далеко за границами Америки.
Пьеса вызывает споры, но остается образцом великолепной техники, поскольку действие происходит "в уме, мысли и памяти" главного персонажа Квентина, в котором многие видят самого Артура Миллера. Это произведение отнюдь не обычная театральная пьеса, а волнующее и беспощадное исследование отношений Квентина с Мэгги (Мэрилин) и самим автором.

Дополнительная информация:
Страна: Россия .
Выпущено: Московский драматический театр им. Н.В.Гоголя, Студия литературно-художественных программ Телерадиокомпании "Останкино".
Автор: Артур Миллер.
Первод: Алексей Симонов.
Художник: Елена Качелаева.
Композитор: Юрий Прялкин.

Релиз
Огромное спасибо Cheef mate за предоставленый материал!!!

Качество видео:...SATRip
Формат:.................AVI
Видео:..688x512 (1.34:1), 25 fps, XviD MPEG-4 ~1424-1427 kbps avg, 0.16 bit/pixel
Аудио:..48 kHz, MPEG Layer 3, 2 ch, ~128.00 kbps avg

Отчет Media Info

1-я часть
General
Complete name : Posle.grehopadeniya_Moskovskij.DT.im.Gogolya.1994.XviD.SATRip.fenixclub\Posle.grehopadeniya.1.avi
Format : AVI
Format/Info : Audio Video Interleave
File size : 701 MiB
Duration : 1h 2mn
Overall bit rate : 1 562 Kbps
Writing application : VirtualDubModRus 1.5.10.2 (build 2542/release)
Writing library : VirtualDub build 32842/release
Video
ID : 0
Format : MPEG-4 Visual
Format profile : Advanced Simple@L5
Format settings, BVOP : 2
Format settings, QPel : No
Format settings, GMC : No warppoints
Format settings, Matrix : Default (H.263)
Muxing mode : Packed bitstream
Codec ID : XVID
Codec ID/Hint : XviD
Duration : 1h 2mn
Bit rate : 1 425 Kbps
Width : 688 pixels
Height : 512 pixels
Display aspect ratio : 4:3
Frame rate : 25.000 fps
Color space : YUV
Chroma subsampling : 4:2:0
Bit depth : 8 bits
Scan type : Progressive
Compression mode : Lossy
Bits/(Pixel*Frame) : 0.162
Stream size : 640 MiB (91%)
Writing library : XviD 1.2.1 (UTC 2008-12-04)
Audio
ID : 1
Format : MPEG Audio
Format version : Version 1
Format profile : Layer 3
Mode : Joint stereo
Mode extension : MS Stereo
Codec ID : 55
Codec ID/Hint : MP3
Duration : 1h 2mn
Bit rate mode : Constant
Bit rate : 128 Kbps
Channel(s) : 2 channels
Sampling rate : 48.0 KHz
Compression mode : Lossy
Stream size : 57.5 MiB (8%)
Alignment : Split accross interleaves
Interleave, duration : 40 ms (1.00 video frame)
Interleave, preload duration : 500 ms.
2-я часть
General
Complete name : Posle.grehopadeniya_Moskovskij.DT.im.Gogolya.1994.XviD.SATRip.fenixclub\Posle.grehopadeniya.2.avi
Format : AVI
Format/Info : Audio Video Interleave
File size : 791 MiB
Duration : 1h 10mn
Overall bit rate : 1 565 Kbps
Writing application : VirtualDubModRus 1.5.10.2 (build 2542/release)
Writing library : VirtualDub build 32842/release
Video
ID : 0
Format : MPEG-4 Visual
Format profile : Advanced Simple@L5
Format settings, BVOP : 2
Format settings, QPel : No
Format settings, GMC : No warppoints
Format settings, Matrix : Default (H.263)
Muxing mode : Packed bitstream
Codec ID : XVID
Codec ID/Hint : XviD
Duration : 1h 10mn
Bit rate : 1 427 Kbps
Width : 688 pixels
Height : 512 pixels
Display aspect ratio : 4:3
Frame rate : 25.000 fps
Color space : YUV
Chroma subsampling : 4:2:0
Bit depth : 8 bits
Scan type : Progressive
Compression mode : Lossy
Bits/(Pixel*Frame) : 0.162
Stream size : 721 MiB (91%)
Writing library : XviD 1.2.1 (UTC 2008-12-04)
Audio
ID : 1
Format : MPEG Audio
Format version : Version 1
Format profile : Layer 3
Mode : Joint stereo
Mode extension : MS Stereo
Codec ID : 55
Codec ID/Hint : MP3
Duration : 1h 10mn
Bit rate mode : Constant
Bit rate : 128 Kbps
Channel(s) : 2 channels
Sampling rate : 48.0 KHz
Compression mode : Lossy
Stream size : 64.7 MiB (8%)
Alignment : Split accross interleaves
Interleave, duration : 40 ms (1.00 video frame)
Interleave, preload duration : 500 ms.

Скриншоты


Альтернативный хост





Показать сообщения:    

Текущее время: 05-Дек 11:34

Часовой пояс: UTC + 3


Вы не можете начинать темы
Вы не можете отвечать на сообщения
Вы не можете редактировать свои сообщения
Вы не можете удалять свои сообщения
Вы не можете голосовать в опросах
Вы не можете прикреплять файлы к сообщениям
Вы не можете скачивать файлы