(Classical) Бретон – Полное собрание симфоний [2 CDs] / Breton – Complete Symphonies / Las 3 sinfonias (Jose Luis Temes) - 2011, FLAC (image+.cue) lossless


 

[Цитировать]

Бретон – Полное собрание симфоний [2 CDs] / Bretón – Complete Symphonies / Las 3 sinfonías (José Luis Temes)
Жанр: Classical
Страна-производитель диска: Испания
Год издания диска: 2011
Издатель (лейбл): Verso
Номер по каталогу: VRS 2117
Дата записи: сентябрь и ноябрь 2011 г., Вальядолид.
Аудиокодек: FLAC
Тип рипа: image+.cue
Битрейт аудио: lossless
Продолжительность: 01:19:35 + 00:36:55
Источник: odeonmusic
Наличие сканов в содержимом раздачи: да
Треклист:
Томас Бретон-и-Эрнандес (1850 — 1923).
Полное собрание (сохранившихся) симфоний.
Cd 1.
Симфония № 1 F-dur (оконч. 1872, первое исполнение 1874).
01. I. Allegro moderato [11:27].
02. II. Andante [12:10].
03. III. Scherzo [03:24].
04. IV. Final. Allegro [06:12].
Симфония № 2 Es-dur (1883).
05. I. Andante assai. — Allegro moderato [12:30].
06. II. Andante [11:35].
07. III. Presto [07:13].
08. IV. Allegro impetuoso [15:00].
Cd 2.
Симфония № 3 G-dur (1905; обработка утраченного Фортепианного квинтета, 1904).
01. I. Allegro non tanto [13:40].
02. II. Andante con moto [06:58].
03. III. Scherzo. Allegro [05:45].
04. IV. Allegro [10:31].
Исполнители:
Orquesta Sinfónica de Castilla y León (OSCyL).
Дирижер José Luis Temes.

Логи создания рипаCD 1.

Exact Audio Copy V1.0 beta 3 from 29. August 2011
EAC extraction logfile from 6. August 2012, 14:20
José Luis Temes / Tomás Bretón - Las 3 Sinfonias - José Luis Temes (Disc 1)
Used drive : HL-DT-STDVDRAM GSA-H10A Adapter: 0 ID: 0
Read mode : Secure
Utilize accurate stream : Yes
Defeat audio cache : Yes
Make use of C2 pointers : No
Read offset correction : 667
Overread into Lead-In and Lead-Out : No
Fill up missing offset samples with silence : Yes
Delete leading and trailing silent blocks : No
Null samples used in CRC calculations : Yes
Used interface : Native Win32 interface for Win NT & 2000
Used output format : User Defined Encoder
Selected bitrate : 1024 kBit/s
Quality : High
Add ID3 tag : No
Command line compressor : C:\Program Files\Exact Audio Copy\Flac\flac.exe
Additional command line options : -8 -V -T "TITLE=%title%" -T "ARTIST=%artist%" -T "ALBUMARTIST=%albumartist%" -T "ALBUM=%albumtitle%" -T "DATE=%year%" -T "TRACKNUMBER=%tracknr%" -T "TRACKTOTAL=%numtracks%" -T "GENRE=%genre%" -T "COMMENT=%comment%" -T "PERFORMER=%albuminterpret%" -T "COMPOSER=%composer%" %source% -o %dest%
TOC of the extracted CD
Track | Start | Length | Start sector | End sector
---------------------------------------------------------
1 | 0:00.00 | 11:27.68 | 0 | 51592
2 | 11:27.68 | 12:10.47 | 51593 | 106389
3 | 23:38.40 | 3:23.41 | 106390 | 121655
4 | 27:02.06 | 6:12.05 | 121656 | 149560
5 | 33:14.11 | 12:30.14 | 149561 | 205824
6 | 45:44.25 | 11:36.18 | 205825 | 258042
7 | 57:20.43 | 7:12.73 | 258043 | 290515
8 | 64:33.41 | 15:01.68 | 290516 | 358158
Range status and errors
Selected range
Filename F:\Ripped general\[9693] Tomás Bretón - Las 3 Sinfonias - José Luis Temes\cd1\Tomás Bretón - Las 3 Sinfonias - José Luis Temes (Disc 1).wav
Peak level 99.4 %
Extraction speed 7.7 X
Range quality 100.0 %
Test CRC C2DA3369
Copy CRC C2DA3369
Copy OK
No errors occurred
AccurateRip summary
Track 1 not present in database
Track 2 not present in database
Track 3 not present in database
Track 4 not present in database
Track 5 not present in database
Track 6 not present in database
Track 7 not present in database
Track 8 not present in database
None of the tracks are present in the AccurateRip database
End of status report

CD 2.

Exact Audio Copy V1.0 beta 3 from 29. August 2011
EAC extraction logfile from 6. August 2012, 16:23
José Luis Temes / Tomás Bretón - Las 3 Sinfonias - José Luis Temes (Disc 2)
Used drive : HL-DT-STDVDRAM GSA-H10A Adapter: 0 ID: 0
Read mode : Secure
Utilize accurate stream : Yes
Defeat audio cache : Yes
Make use of C2 pointers : No
Read offset correction : 667
Overread into Lead-In and Lead-Out : No
Fill up missing offset samples with silence : Yes
Delete leading and trailing silent blocks : No
Null samples used in CRC calculations : Yes
Used interface : Native Win32 interface for Win NT & 2000
Used output format : User Defined Encoder
Selected bitrate : 1024 kBit/s
Quality : High
Add ID3 tag : No
Command line compressor : C:\Program Files\Exact Audio Copy\Flac\flac.exe
Additional command line options : -8 -V -T "TITLE=%title%" -T "ARTIST=%artist%" -T "ALBUMARTIST=%albumartist%" -T "ALBUM=%albumtitle%" -T "DATE=%year%" -T "TRACKNUMBER=%tracknr%" -T "TRACKTOTAL=%numtracks%" -T "GENRE=%genre%" -T "COMMENT=%comment%" -T "PERFORMER=%albuminterpret%" -T "COMPOSER=%composer%" %source% -o %dest%
TOC of the extracted CD
Track | Start | Length | Start sector | End sector
---------------------------------------------------------
1 | 0:00.00 | 13:40.58 | 0 | 61557
2 | 13:40.58 | 6:58.12 | 61558 | 92919
3 | 20:38.70 | 5:45.08 | 92920 | 118802
4 | 26:24.03 | 10:31.24 | 118803 | 166151
Range status and errors
Selected range
Filename F:\Ripped general\[9693] Tomás Bretón - Las 3 Sinfonias - José Luis Temes\cd2\Tomás Bretón - Las 3 Sinfonias - José Luis Temes (Disc 2).wav
Peak level 100.0 %
Extraction speed 6.8 X
Range quality 100.0 %
Test CRC 6CA0DC26
Copy CRC 6CA0DC26
Copy OK
No errors occurred
AccurateRip summary
Track 1 not present in database
Track 2 not present in database
Track 3 not present in database
Track 4 not present in database
None of the tracks are present in the AccurateRip database
End of status report

Содержание индексных карт (.CUE)CD 1.

REM DISCID 7D12A708
REM COMMENT "ExactAudioCopy v1.0b3"
PERFORMER "Jose Luis Temes"
TITLE "Tomas Breton – Las 3 Sinfonias – Jose Luis Temes (Disc 1)"
FILE "Tomas Breton – Las 3 Sinfonias – Jose Luis Temes (Disc 1).flac" WAVE
TRACK 01 AUDIO
TITLE "Symphony No. 1 in F major (1872) - I. Allegro moderato"
PERFORMER "Jose Luis Temes"
INDEX 01 00:00:00
TRACK 02 AUDIO
TITLE "Symphony No. 1 in F major (1872) - II. Andante"
PERFORMER "Jose Luis Temes"
INDEX 00 11:26:66
INDEX 01 11:27:68
TRACK 03 AUDIO
TITLE "Symphony No. 1 in F major (1872) - III. Scherzo"
PERFORMER "Jose Luis Temes"
INDEX 00 23:36:64
INDEX 01 23:38:40
TRACK 04 AUDIO
TITLE "Symphony No. 1 in F major (1872) - IV. Final. Allegro"
PERFORMER "Jose Luis Temes"
INDEX 00 26:59:31
INDEX 01 27:02:06
TRACK 05 AUDIO
TITLE "Symphony No. 2 in E flat major (1883) - I. Andante assai - Allegro moderato"
PERFORMER "Jose Luis Temes"
INDEX 00 33:07:62
INDEX 01 33:14:11
TRACK 06 AUDIO
TITLE "Symphony No. 2 in E flat major (1883) - II. Andante"
PERFORMER "Jose Luis Temes"
INDEX 00 45:42:25
INDEX 01 45:44:25
TRACK 07 AUDIO
TITLE "Symphony No. 2 in E flat major (1883) - III. Presto"
PERFORMER "Jose Luis Temes"
INDEX 01 57:20:43
TRACK 08 AUDIO
TITLE "Symphony No. 2 in E flat major (1883) - IV. Allegro impetuoso"
PERFORMER "Jose Luis Temes"
INDEX 00 64:31:55
INDEX 01 64:33:41

CD 2.

REM GENRE Classical
REM DISCID 2908A704
REM COMMENT "ExactAudioCopy v1.0b3"
PERFORMER "Jose Luis Temes"
TITLE "Tomas Breton – Las 3 Sinfonias – Jose Luis Temes (Disc 2)"
FILE "Tomas Breton – Las 3 Sinfonias – Jose Luis Temes (Disc 2).flac" WAVE
TRACK 01 AUDIO
TITLE "Symphony No. 3 in G major (1905) - I. Allegro non tanto"
PERFORMER "Jose Luis Temes"
INDEX 01 00:00:00
TRACK 02 AUDIO
TITLE "Symphony No. 3 in G major (1905) - II. Andante con moto"
PERFORMER "Jose Luis Temes"
INDEX 01 13:40:58
TRACK 03 AUDIO
TITLE "Symphony No. 3 in G major (1905) - III. Scherzo. Allegro"
PERFORMER "Jose Luis Temes"
INDEX 01 20:38:70
TRACK 04 AUDIO
TITLE "Symphony No. 3 in G major (1905) - IV. Allegro"
PERFORMER "Jose Luis Temes"
INDEX 01 26:24:03
-Еще около 1867 года Бретон пробовал написать симфонию. Он назвал ее «Симфонией нужды» и впоследствии пришел к убеждению, что эта попытка едва ли чего-то стоила. От этой симфонии сохранилось лишь несколько страниц.
На диске представлены три дошедшие до нас симфонии. Первая и Третья записаны впервые. С обозначениями темпа, возможно, какая-то путаница: по крайней мере, в первой части Второй симфонии точно нет никакого вступления.-Томас Бретон.
Скрипичный концерт a-moll (Ara Malikian, Alejandro Posada Gómez).



Показать сообщения:    

Текущее время: 08-Дек 01:17

Часовой пояс: UTC + 3


Вы не можете начинать темы
Вы не можете отвечать на сообщения
Вы не можете редактировать свои сообщения
Вы не можете удалять свои сообщения
Вы не можете голосовать в опросах
Вы не можете прикреплять файлы к сообщениям
Вы не можете скачивать файлы