(Classical) [LP] [24/48] Johannes Brahms - Four Symphonies \ И. Брамс - Четыре симфонии (Венский филармонический оркестр - Дирижер Карл Бем) [4 LP Box] - 1980, FLAC (tracks+.cue)


Статистика раздачи [Обновить пиров]
Размер:  1.67 GB   |    Зарегистрирован:  10 месяцев 5 дней   |    Скачан:  2 раза

Полного источника не было: 2 дня 1 час

 
   
 
 
 

[Цитировать]

Johannes Brahms - Four Symphonies \ И. Брамс - Четыре симфонии (Венский филармонический оркестр - Дирижер Карл Бем) [4 LP Box]
Жанр: Classical
Носитель: LP
Год выпуска: 1980
Лейбл: Melodya
Страна-производитель: USSR
Аудио кодек: FLAC
Тип рипа: tracks+.cue
Формат записи: 32/192
Формат раздачи: 24/48
Продолжительность: 47.52 min;43.09 min;37.04 min;42.13 min
Треклист:
Disc I - Симфония №1 до минор, соч. 68
01. Un poco sostenuto. Allegro
02. Andante sostenuto
03. Un poco allegretto e grazioso
04. Adagio.Allegro non troppo ma con brio
соло на скрипке - Герхард Хетцель
Disc II - Симфония №2 ре мажор, соч. 73
01. Allegro non troppo
02. Adagio non troppo.L'istesso tempo ma grazioso
03. Allegretto grazioso (Quasi andantino)
04. Allegro con spirito
Disc III - Симфония №3 фа мажор, соч. 90
01. Allegro con brio
02. Andante
03. Poco allegretto
04. Allegro
Disc IV - Симфония №4 ми минор, соч. 98
01. Allegro non troppo
02. Andante moderato
03. Allegro giocoso.Poco meno presto
04. Allegro energico e passionato.Piu allegro
The Vienna Philharmonic Orchestra – Conductor Karl Böhm
Источник оцифровки: автором раздачи
Код класса состояния винила: Mint
Устройство воспроизведения: Электроника ЭП 017С
Головка звукоснимателя: Audio-Technica AT95
Предварительный усилитель: Бриг-001
АЦП: VIA HD audio device
Программа-оцифровщик: Izotope RX III Advanced
Обработка: Manual

Спектр+АЧХ+Уровень записи








DR=14,15,15,14

foobar2000 1.1.10 / Dynamic Range Meter 1.1.1
log date: 2014-12-09 18:14:32
--------------------------------------------------------------------------------
Analyzed: Johannes Brahms / Four Symphonies - Disc I - Symphony №1 in C Minor, Op 68
--------------------------------------------------------------------------------
DR Peak RMS Duration Track
--------------------------------------------------------------------------------
DR14 -2.69 dB -22.18 dB 14:10 ?-Un poco sostenuto. Allegro
DR14 -5.55 dB -26.70 dB 10:42 ?-Andante sostenuto
DR14 -5.23 dB -25.21 dB 5:06 ?-Un poco allegretto e grazioso
DR14 -2.67 dB -22.45 dB 17:53 ?-Adagio.Allegro non troppo ma con brio
--------------------------------------------------------------------------------
Number of tracks: 4
Official DR value: DR14
Samplerate: 48000 Hz
Channels: 2
Bits per sample: 24
Bitrate: 1394 kbps
Codec: FLAC
================================================================================
foobar2000 1.1.10 / Dynamic Range Meter 1.1.1
log date: 2014-12-09 18:49:36
--------------------------------------------------------------------------------
Analyzed: Johannes Brahms / Four Symphonies - Disc II - Symphony №2 in D Major, Op. 73
--------------------------------------------------------------------------------
DR Peak RMS Duration Track
--------------------------------------------------------------------------------
DR14 -1.10 dB -22.39 dB 15:37 ?-Allegro non troppo
DR16 -3.12 dB -26.44 dB 11:46 ?-Adagio non troppo.L'istesso tempo ma grazioso
DR18 -5.45 dB -29.83 dB 5:41 ?-Allegretto grazioso (Quasi andantino)
DR14 -1.47 dB -20.62 dB 10:04 ?-Allegro con spirito
--------------------------------------------------------------------------------
Number of tracks: 4
Official DR value: DR15
Samplerate: 48000 Hz
Channels: 2
Bits per sample: 24
Bitrate: 1446 kbps
Codec: FLAC
================================================================================
foobar2000 1.1.10 / Dynamic Range Meter 1.1.1
log date: 2014-12-09 19:12:01
--------------------------------------------------------------------------------
Analyzed: Johannes Brahms / Four Symphonies - Disc III - Symphony №3 in F Major, Op. 90
--------------------------------------------------------------------------------
DR Peak RMS Duration Track
--------------------------------------------------------------------------------
DR13 -2.80 dB -21.96 dB 11:00 ?-Allegro con brio
DR16 -2.89 dB -26.67 dB 10:33 ?-Andante
DR15 -7.56 dB -29.42 dB 6:40 ?-Poco allegretto
DR14 -1.54 dB -21.82 dB 8:51 ?-Allegro
--------------------------------------------------------------------------------
Number of tracks: 4
Official DR value: DR15
Samplerate: 48000 Hz
Channels: 2
Bits per sample: 24
Bitrate: 1414 kbps
Codec: FLAC
================================================================================
foobar2000 1.1.10 / Dynamic Range Meter 1.1.1
log date: 2014-12-09 19:36:07
--------------------------------------------------------------------------------
Analyzed: Johannes Brahms / Four Symphonies - Disc IV - Symphony №4 in E Minor, Op. 98
--------------------------------------------------------------------------------
DR Peak RMS Duration Track
--------------------------------------------------------------------------------
DR15 -0.73 dB -20.91 dB 13:11 ?-Allegro non troppo
DR14 -3.70 dB -24.16 dB 12:04 ?-Andante moderato
DR14 -2.24 dB -21.48 dB 6:40 ?-Allegro giocoso.Poco meno presto
DR14 -1.80 dB -21.60 dB 10:19 ?-Allegro energico e passionato.Piu allegro
--------------------------------------------------------------------------------
Number of tracks: 4
Official DR value: DR14
Samplerate: 48000 Hz
Channels: 2
Bits per sample: 24
Bitrate: 1404 kbps
Codec: FLAC
================================================================================
[teatrix.ru].t19647.torrent 
Торрент: Зарегистрирован [ 2016-03-18 12:21 ] · 08C1F7D658268125C3E21149BE71DF94A49631AB

Скачать .torrent

Скачать

22 KB

Статус: проверено
Скачан: 2 раз
Размер: 1.67 GB
terms.php



Быстрый ответ

Имя:

      
Для отправки сообщений необходимо включить JavaScript
Показать сообщения:    

Текущее время: 24-Янв 00:00

Часовой пояс: UTC + 3


Вы можете начинать темы
Вы можете отвечать на сообщения
Вы не можете редактировать свои сообщения
Вы не можете удалять свои сообщения
Вы не можете голосовать в опросах
Вы не можете прикреплять файлы к сообщениям
Вы можете скачивать файлы