Ален Делон в передаче Кино / Special Cinema: Alain Delon (Кристиан Дефэй / Christian Defaye) [26.11.1975, документальный, кинематограф, TVRip-AVC] Original (Fre) + Sub (Rus)


Статистика раздачи [Обновить пиров]
Размер:  495 MB   |    Зарегистрирован:  8 месяцев 21 день   |    Скачан:  0 раз

Полного источника не было: Никогда

 
   
 
 
 

[Цитировать]

Ален Делон в передаче "Кино"
Spécial Cinéma: Alain Delon- Дата/Год выпуска: 26.11.1975
Страна: Швейцария
Жанр: документальный, кинематограф
Продолжительность: 00:25:39
Перевод: Субтитры
Русские субтитры: естьФормат субтитров: softsub (SRT)
Доп. информация о субтитрах: перевод Алексей Королёв, консультант Alec Storm, инициатор - Алексей Проскуряков (Aleks Punk)
Оригинальная аудиодорожка: французский
Режиссер: Кристиан Дефэй / Christian Defaye
Телеканал: TSR
Описание: Из архивов швейцарского телевидения: в еженедельной передаче "Spécial Cinéma" на канале TSR Ален Делон – актер и продюсер - рассказывает о своей жизни, карьере, характере и создаваемых на экране образах.
Ведет передачу Кристиан Дефэй / Christian Defaye.
Доп. информация: За предоставленный материал благодарность Aleks Punk

качество: TVRip-AVC
формат: MKV
Видео: AVC (H.264), 640x480 (4:3), 25 fps, ~2500 kbps avg, 0.326 bit/pixel
Аудио: AC3, 2 ch, 48 kHz, ~192.00 kbps avg

Пример субтитров

1
00:00:00,000 --> 00:00:03,180
- Дубль первый.
- Окей.
2
00:00:04,460 --> 00:00:09,220
Здравствуйте, Ален Делон, спасибо, что согласились
поучаствовать в посвященном вам выпуске "Синема".
3
00:00:09,340 --> 00:00:17,860
Потому что после нашей беседы состоится показ
фильма Лукино Висконти "Рокко и его, братья,
в котором вы снимались в 1960-м году.
4
00:00:17,940 --> 00:00:19,380
Мы еще поговорим об этом фильме.
5
00:00:19,500 --> 00:00:23,860
А пока, если позволите, мы хотели бы
познакомится с вами поближе.
6
00:00:24,100 --> 00:00:27,060
Вы очень знамениты, и в то же время
о вас мало что известно широкой публике.
7
00:00:27,220 --> 00:00:30,300
Я недавно прочел книгу о вас.
Она называется "Ален Делон".
8
00:00:30,500 --> 00:00:35,940
Автор - Анри Род. Книга вышла в серии
"Тэт д'афиш".
9
00:00:36,100 --> 00:00:42,220
Книга вдохновила меня задать вам несколько вопросов
касательно вашей личности, к которой
довольно трудно подступиться.
10
00:00:42,380 --> 00:00:45,340
Вы, видимо, терпеть не можете интервью,
потому что в книге вы говорите
11
00:00:45,420 --> 00:00:48,620
"У меня возникает инстинктивный страх,
когда мне задают вопросы".

Это правда?
12
00:00:49,340 --> 00:00:51,700
- Да, я всегда боялся вопросов.
13
00:00:53,540 --> 00:00:55,420
Во-первых, потому что
я не люблю на них отвечать.
14
00:00:55,540 --> 00:00:58,380
И потом,- я подчеркну эту разницу,-
15
00:00:58,540 --> 00:01:03,460
для меня всегда были журналисты и журналисты,
пресса и другая пресса.
16
00:01:05,060 --> 00:01:07,900
Что касается вас, я думаю,
я отвечу на ваши вопросы,
17
00:01:08,020 --> 00:01:17,420
потому что, я считаю, что нечасто можно встретить
собеседника... скажем, способного,
тем более умного и профессионального.
18
00:01:17,660 --> 00:01:24,180
И обычно поэтому, интервью, которые мне
случается давать, скоро превращаются в драму
и очень быстро заканчиваются.
19
00:01:24,380 --> 00:01:28,940
- Признаюсь, я часто видел вас на других
телепередачах,
20
00:01:29,180 --> 00:01:36,500
и я чувствовал в вас, даже через экран, значительный
заряд агрессии еще до всяких вопросов.

MediaInfo

Общее
Уникальный идентификатор : 234253699230601812143776837696737522854 (0xB03B9F139F6DEA2AA04F6C73BF8834A6)
Полное имя : E:\My Torrents 2\[apreder]Special_Cinema_Alain_Delon(1975)TVRip.mkv
Формат : Matroska
Версия формата : Version 2
Размер файла : 495 Мбайт
Продолжительность : 25 м.
Общий поток : 2695 Кбит/сек
Дата кодирования : UTC 2014-12-09 18:06:16
Программа кодирования : mkvmerge v7.3.0 ('Nouages') 64bit built on Oct 22 2014 18:53:34
Библиотека кодирования : libebml v1.3.0 + libmatroska v1.4.1
Видео
Идентификатор : 1
Формат : AVC
Формат/Информация : Advanced Video Codec
Профиль формата : High@L4.1
Параметр CABAC формата : Да
Параметр ReFrames формата : 16 кадров
Идентификатор кодека : V_MPEG4/ISO/AVC
Продолжительность : 25 м.
Битрейт : 2500 Кбит/сек
Ширина : 640 пикселей
Высота : 480 пикселей
Соотношение сторон : 4:3
Режим частоты кадров : Постоянный
Частота кадров : 25,000 кадров/сек
Цветовое пространство : YUV
Субдискретизация насыщенности : 4:2:0
Битовая глубина : 8 бит
Тип развёртки : Прогрессивная
Бит/(Пиксели*Кадры) : 0.326
Размер потока : 450 Мбайт (91%)
Библиотека кодирования : x264 core 142 r2431 ac76440
Настройки программы : cabac=1 / ref=16 / deblock=1:-1:-1 / analyse=0x3:0x133 / me=umh / subme=10 / psy=1 / psy_rd=1.00:0.15 / mixed_ref=1 / me_range=24 / chroma_me=1 / trellis=2 / 8x8dct=1 / cqm=0 / deadzone=21,11 / fast_pskip=1 / chroma_qp_offset=-3 / threads=6 / lookahead_threads=1 / sliced_threads=0 / nr=0 / decimate=1 / interlaced=0 / bluray_compat=0 / constrained_intra=0 / bframes=8 / b_pyramid=2 / b_adapt=2 / b_bias=0 / direct=3 / weightb=1 / open_gop=0 / weightp=2 / keyint=250 / keyint_min=25 / scenecut=40 / intra_refresh=0 / rc_lookahead=60 / rc=2pass / mbtree=1 / bitrate=2500 / ratetol=1.0 / qcomp=0.60 / qpmin=0 / qpmax=69 / qpstep=4 / cplxblur=20.0 / qblur=0.5 / vbv_maxrate=62500 / vbv_bufsize=78125 / nal_hrd=none / filler=0 / ip_ratio=1.40 / aq=1:1.00
Default : Да
Forced : Нет
Аудио
Идентификатор : 2
Формат : AC-3
Формат/Информация : Audio Coding 3
Расширение режима : CM (complete main)
Параметр Endianness формата : Big
Идентификатор кодека : A_AC3
Продолжительность : 25 м.
Вид битрейта : Постоянный
Битрейт : 192 Кбит/сек
Каналы : 2 канала
Расположение каналов : Front: L R
Частота : 48,0 КГц
Битовая глубина : 16 бит
Метод сжатия : С потерями
Размер потока : 35,2 Мбайт (7%)
Язык : French
Default : Да
Forced : Нет
Текст
Идентификатор : 3
Формат : UTF-8
Идентификатор кодека : S_TEXT/UTF8
Идентификатор кодека/Информация : UTF-8 Plain Text
Язык : Russian
Default : Да
Forced : Нет[/pre]

Скриншоты

Резервные скриншоты

-[1'973]
[teatrix.ru].t19649.torrent 
Торрент: Зарегистрирован [ 2016-03-18 12:21 ] · 9B8E260F1C5F5B56B1B2764224AA5AC130B757DC

Скачать .torrent

Скачать

20 KB

Статус: проверено
Скачан: 0 раз
Размер: 495 MB
terms.php



Показать сообщения:    

Текущее время: 09-Дек 08:53

Часовой пояс: UTC + 3


Вы не можете начинать темы
Вы не можете отвечать на сообщения
Вы не можете редактировать свои сообщения
Вы не можете удалять свои сообщения
Вы не можете голосовать в опросах
Вы не можете прикреплять файлы к сообщениям
Вы можете скачивать файлы