(Classical, zarzuela) Бретон – «Праздник в день Паломы» / Breton – La verbena de la Paloma (Ana Maria Iriarte, Ines Rivadeneira, Junita Bermejo, Manuel Ausensi, Miguel Ligero Rodriges; Ataulfo Argenta) - 1987 (1958), FLAC (image+.cue) lossless


 

[Цитировать]

Бретон – «Праздник в день Паломы» / Bretón – La verbena de la Paloma (Ana María Iriarte, Inés Rivadeneira, Junita Bermejo, Manuel Ausensi, Miguel Ligero Rodríguez, Joaquin Portillo; Ataúlfo Argenta)
Жанр: Classical, zarzuela
Страна-производитель диска: Испания?
Год издания диска: 1987
Издатель (лейбл): Alhambra, BMG Ariola
Номер по каталогу: WD-71435
Дата записи: не указана; диск 1987 года, на нем написано, что впервые запись издана в 1974. Испанская википедия пишет, что Архента записывал эту сарсуэлу дважды: в 1953 и 1958 (годы выпуска пластинок). Если это так, то, возможно, 1974 — год выпуска реставрированной версии, переизданной затем на диске. Судя по исполнителям, это запись 1958 года.
Аудиокодек: FLAC
Тип рипа: image+.cue
Битрейт аудио: lossless
Продолжительность: 00:42:53
Источник: odeonmusic
Наличие сканов в содержимом раздачи: да
Треклист:
Томас Бретон-и-Эрнандес (1850 — 1923).
«Праздник в день Паломы, или Аптекарь и чулапас»,
лирический водевиль в одном действии, трех картинах (первая постановка 1894).

01. Вступление. Allegro. — Allegro. — [Солеа.] — Andantino. — Allegro moderato. — El mismo tiempo. — Tempo lento de habanera [04:00].
Картина первая.
02. № 1. Разговор и сцена. Allegro animato (Дон Иларион, Дон Себастьян). — (Хулиан, Сенья Рита.) — Andantino (Хозяин, два парня). — [04:10].
(03.) — № 1-A. Песня Хулиана и ансамбль. Andantino (Хулиан, Сенья Рита). — (Дон Иларион, Дон Себастьян.) — Deciso (Хозяин, два парня). — Tempo I (септет). — (Привратник и его жена.) — Allegro (Хор чулапос и чулапас). — [04:15].
(04.) — №1-B. Сегидилья. Tiempo de seguidillas (Хор чулапос и чулапас) [01:27].
03. № 2. Куплеты Дона Илариона. Moderato [03:29].
Картина вторая.
04. № 3. Вступление, сцена и солеа. Allegro moderato. — Tiempo moderato de soledad (Певица, затем Антония, два полицейских). — Moderato (Антония, Каста, Сусана, сосед, соседка). — (Певица, затем все, кроме нее и соседей, хор) [06:12].
05. № 4. Ноктюрн. Moderato cási lento (Сторож и два полицейских). — [03:19].
(08.) — № 4-A. Сцена Дона Илариона и чулапас. Moderato cási lento (Два полицейских, говорят). — (Дон Иларион, Каста, Сусана, Антония.) — [02:09].
(09.) — № 4-B. Мазурка. Tiempo de mazurka (те же, говорят) [02:21].
06. № 5. Дуэт и сцена. Maestoso (Сенья Рита, Хулиан). — Moderato (те же). — (Два полицейских, говорят.) — Moderato (Каста, Сусана, Антония, Сенья Рита, Хулиан, Дон Иларион). — [04:08].
(11.) — № 5-A. Квинтет. Gracioso (Каста, Сусана, Сенья Рита, Хулиан, Дон Иларион). — Majestuoso (Сенья Рита, Хулиан). — Lento (Дон Иларион и те же). — Poco mas moviendo (Каста, Сусана, Хулиан, Дон Иларион). — [03:04].
(12.) — № 5-B. Хабанера. Tiempo lento de habanera (Сусана, Хулиан). — Poco allegro (говорят). — Moderato (Хозяин, Сусана, Сенья Рита, Хулиан, Дон Иларион, хор). — Lento (Каста, Сусана, Сенья Рита, Хулиан, два полицейских). — Allegro [04:12].
Исполнители:
Ana María Iriarte (Сусана),
Inés Rivadeneira (Сенья Рита),
Julita Bermejo (Каста),
Manuel Ausensi (Хулиан),
Miguel Ligero Rodríguez (Дон Иларион),
Joaquin Portillo (Дон Себастьян)
Rafael López Somoza (ночной сторож),
María Dolores López (певица),
Selica Pérez Carpio (тетушка Антония),
Rafael Campos (хозяин таверны).
Coro Cantores de Madrid (дирижер José Perera).
Orquesta Sinfónica.
Дирижер Ataúlfo Argenta.

Лог создания рипа

Exact Audio Copy V1.0 beta 3 from 29. August 2011
EAC extraction logfile from 8. June 2012, 17:40
Ataúlfo Argenta / Bretón - La Verbena de la Paloma - Argenta
Used drive : HL-DT-STDVDRAM GSA-H10A Adapter: 0 ID: 0
Read mode : Secure
Utilize accurate stream : Yes
Defeat audio cache : Yes
Make use of C2 pointers : No
Read offset correction : 667
Overread into Lead-In and Lead-Out : No
Fill up missing offset samples with silence : Yes
Delete leading and trailing silent blocks : No
Null samples used in CRC calculations : Yes
Used interface : Native Win32 interface for Win NT & 2000
Used output format : User Defined Encoder
Selected bitrate : 1024 kBit/s
Quality : High
Add ID3 tag : No
Command line compressor : C:\Program Files\Exact Audio Copy\Flac\flac.exe
Additional command line options : -8 -V -T "TITLE=%title%" -T "ARTIST=%artist%" -T "ALBUMARTIST=%albumartist%" -T "ALBUM=%albumtitle%" -T "DATE=%year%" -T "TRACKNUMBER=%tracknr%" -T "TRACKTOTAL=%numtracks%" -T "GENRE=%genre%" -T "COMMENT=%comment%" -T "PERFORMER=%albuminterpret%" -T "COMPOSER=%composer%" %source% -o %dest%
TOC of the extracted CD
Track | Start | Length | Start sector | End sector
---------------------------------------------------------
1 | 0:00.00 | 4:00.50 | 0 | 18049
2 | 4:00.50 | 9:52.72 | 18050 | 62521
3 | 13:53.47 | 9:45.00 | 62522 | 106396
4 | 23:38.47 | 7:51.03 | 106397 | 141724
5 | 31:29.50 | 11:23.25 | 141725 | 192974
Range status and errors
Selected range
Filename F:\Ripped general\[0827] Bretón - La Verbena de la Paloma - Argenta\Bretón - La Verbena de la Paloma - Argenta.wav
Peak level 100.0 %
Extraction speed 6.8 X
Range quality 99.9 %
Test CRC 9AD9472E
Copy CRC 9AD9472E
Copy OK
No errors occurred
AccurateRip summary
Track 1 not present in database
Track 2 not present in database
Track 3 not present in database
Track 4 not present in database
Track 5 not present in database
None of the tracks are present in the AccurateRip database
End of status report

Содержание индексной карты (.CUE)

REM DISCID 340A0D05
REM COMMENT "ExactAudioCopy v1.0b3"
PERFORMER "Ataulfo Argenta"
TITLE "Breton – La Verbena de la Paloma – Argenta"
FILE "Breton – La Verbena de la Paloma – Argenta.flac" WAVE
TRACK 01 AUDIO
FLAGS PRE
TITLE "La verbena de la Paloma - Preludio"
PERFORMER "Ataulfo Argenta"
INDEX 01 00:00:00
TRACK 02 AUDIO
FLAGS PRE
TITLE "La verbena de la Paloma - No. 1. Parlante y escena - Cancion de Julian - Seguidillas"
PERFORMER "Ataulfo Argenta"
INDEX 00 03:59:67
INDEX 01 04:00:50
TRACK 03 AUDIO
FLAGS PRE
TITLE "La verbena de la Paloma - No. 2. Coplas de Don Hilarion"
PERFORMER "Ataulfo Argenta"
INDEX 00 13:52:30
INDEX 01 13:53:47
TRACK 04 AUDIO
FLAGS PRE
TITLE "La verbena de la Paloma - No. 3. Soledad"
PERFORMER "Ataulfo Argenta"
INDEX 00 17:22:66
INDEX 01 17:24:45
TRACK 05 AUDIO
FLAGS PRE
TITLE "La verbena de la Paloma - No. 4. Nocturno - Escena de las Chulapas y de Don Hilarion - Mazurca"
PERFORMER "Ataulfo Argenta"
INDEX 00 23:36:45
INDEX 01 23:38:47
TRACK 06 AUDIO
FLAGS PRE
TITLE "La verbena de la Paloma - No. 5. Duo y escena - Quinteto - Habanera concertante"
PERFORMER "Ataulfo Argenta"
INDEX 00 31:27:47
INDEX 01 31:29:50

Вариант индексной карты (.CUE) с выделением отдельных частей номеров в отдельные треки

REM DISCID 340A0D05
REM COMMENT "ExactAudioCopy v1.0b3"
PERFORMER "Ataulfo Argenta"
TITLE "Breton – La Verbena de la Paloma – Argenta"
FILE "Breton – La Verbena de la Paloma – Argenta.flac" WAVE
TRACK 01 AUDIO
FLAGS PRE
TITLE "La verbena de la Paloma - Preludio"
PERFORMER "Ataulfo Argenta"
INDEX 01 00:00:00
TRACK 02 AUDIO
FLAGS PRE
TITLE "La verbena de la Paloma - No. 1. Parlante y escena -"
PERFORMER "Ataulfo Argenta"
INDEX 00 03:59:67
INDEX 01 04:00:50
TRACK 03 AUDIO
FLAGS PRE
TITLE "La verbena de la Paloma - No. 1-A. Cancion de Julian -"
PERFORMER "Ataulfo Argenta"
INDEX 01 08:11:02
TRACK 04 AUDIO
FLAGS PRE
TITLE "La verbena de la Paloma - No. 1-B. Seguidillas"
PERFORMER "Ataulfo Argenta"
INDEX 01 12:25:63
TRACK 05 AUDIO
FLAGS PRE
TITLE "La verbena de la Paloma - No. 2. Coplas de Don Hilarion"
PERFORMER "Ataulfo Argenta"
INDEX 00 13:52:30
INDEX 01 13:53:47
TRACK 06 AUDIO
FLAGS PRE
TITLE "La verbena de la Paloma - No. 3. Soledad"
PERFORMER "Ataulfo Argenta"
INDEX 00 17:22:66
INDEX 01 17:24:45
TRACK 07 AUDIO
FLAGS PRE
TITLE "La verbena de la Paloma - No. 4. Nocturno -"
PERFORMER "Ataulfo Argenta"
INDEX 00 23:36:45
INDEX 01 23:38:47
TRACK 08 AUDIO
FLAGS PRE
TITLE "La verbena de la Paloma - No. 4-A. Escena de las Chulapas y de Don Hilarion -"
PERFORMER "Ataulfo Argenta"
INDEX 01 26:57:29
TRACK 09 AUDIO
FLAGS PRE
TITLE "La verbena de la Paloma - No. 4-B. Mazurca"
PERFORMER "Ataulfo Argenta"
INDEX 01 29:06:17
TRACK 10 AUDIO
FLAGS PRE
TITLE "La verbena de la Paloma - No. 5. Duo y escena -"
PERFORMER "Ataulfo Argenta"
INDEX 00 31:27:47
INDEX 01 31:29:50
TRACK 11 AUDIO
FLAGS PRE
TITLE "La verbena de la Paloma - No. 5-A. Quinteto -"
PERFORMER "Ataulfo Argenta"
INDEX 01 35:37:13
TRACK 12 AUDIO
FLAGS PRE
TITLE "La verbena de la Paloma - No. 5-B. Habanera concertante"
PERFORMER "Ataulfo Argenta"
INDEX 01 38:41:42



Показать сообщения:    

Текущее время: 03-Дек 20:41

Часовой пояс: UTC + 3


Вы не можете начинать темы
Вы не можете отвечать на сообщения
Вы не можете редактировать свои сообщения
Вы не можете удалять свои сообщения
Вы не можете голосовать в опросах
Вы не можете прикреплять файлы к сообщениям
Вы не можете скачивать файлы