(Opera) Janacek - Katja Kabanowa (Trotschel, Schindler, Rott, Pflanzl, Thomann - Staatskapelle Dresden, Richter) - 2006, APE (image+.cue) lossless


 

[Цитировать]

Leos Janacek - Katja Kabanowa
Жанр: Opera
Страна-производитель диска: Germany
Год издания диска: 2006
Издатель (лейбл): Profil - Edition Günter Hänssler
Номер по каталогу: DCD PH06040
Дата записи: 1949
Аудиокодек: APE
Тип рипа: image+.cue
Битрейт аудио: lossless
Продолжительность: 70'23+31'25
Источник: собственный рип
Наличие сканов в содержимом раздачи: да
Треклист:
CD1
1. Scene 1
2. Narrator
3. Scene 2
4. Scene 3
5. Narrator
6. Scene 4
CD2
1. Narrator
2. Scene 5
3. Narrator
4. Scene 6
Исполнители:
Leos Janacek - Katja Kabanowa
Opera in 3 acts
Katerina Kabanova - Elfriede Trötschel, Soprano
Boris Grigoryevich - Helmut Schindler, Tenor
Marta Kabanova - Helena Rott, Contralto
Savel Prokofyevich Dikoy - Heinrich Pflanzl, Bass
Tikhon Ivanich Kabanov - Karl-Heinz Thomann, Tenor
Kuligin - Werner Faulhaber, Baritone
Glasha - Sieglinde Gossmann, Mezzo-Soprano
Vanya Kudyash - Erich Zimmermann, Tenor
Feklusha - Käte Höfgen, Mezzo-Soprano
Varvara - Ruth Lange, Mezzo-Soprano
Narrator - Renate Glätzner
Narrator - Egon Herwig
Chor Der Staatsoper Dresden
Staatskapelle Dresden
Ernst Richter
Sung in German

Лог создания рипа

CD1

Exact Audio Copy V1.0 beta 3 from 29. August 2011
EAC extraction logfile from 9. December 2014, 12:18
Janacek / Katja Kabanowa, Richter CD1
Used drive : TSSTcorpCDDVDW SE-208AB Adapter: 1 ID: 0
Read mode : Secure
Utilize accurate stream : Yes
Defeat audio cache : Yes
Make use of C2 pointers : No
Read offset correction : 6
Overread into Lead-In and Lead-Out : No
Fill up missing offset samples with silence : Yes
Delete leading and trailing silent blocks : No
Null samples used in CRC calculations : Yes
Used interface : Native Win32 interface for Win NT & 2000
Used output format : Monkey's Audio Lossless Encoder
Selected bitrate : High Lossless Compression
Quality : High
Add ID3 tag : Yes
Command line compressor : C:\Program Files (x86)\Exact Audio Copy\MAC\MAC.exe
TOC of the extracted CD
Track | Start | Length | Start sector | End sector
---------------------------------------------------------
1 | 0:00.00 | 17:39.60 | 0 | 79484
2 | 17:39.60 | 0:40.64 | 79485 | 82548
3 | 18:20.49 | 19:40.25 | 82549 | 171073
4 | 38:00.74 | 13:20.31 | 171074 | 231104
5 | 51:21.30 | 0:30.00 | 231105 | 233354
6 | 51:51.30 | 18:30.33 | 233355 | 316637
Range status and errors
Selected range
Filename D:\EAC\Janacek - Katja Kabanowa, Richter CD1.wav
Peak level 97.8 %
Extraction speed 2.1 X
Range quality 100.0 %
Test CRC C6EFB81E
Copy CRC C6EFB81E
Copy OK
No errors occurred
AccurateRip summary
Track 1 cannot be verified as accurate (confidence 1) [9945B280], AccurateRip returned [17D379DA] (AR v2)
Track 2 cannot be verified as accurate (confidence 1) [240119A7], AccurateRip returned [933F8C11] (AR v2)
Track 3 cannot be verified as accurate (confidence 1) [19955463], AccurateRip returned [B90DF00A] (AR v2)
Track 4 cannot be verified as accurate (confidence 1) [88525EE9], AccurateRip returned [C13AF9CA] (AR v2)
Track 5 cannot be verified as accurate (confidence 1) [F5D38636], AccurateRip returned [5F1E2080] (AR v2)
Track 6 cannot be verified as accurate (confidence 1) [844F6EDC], AccurateRip returned [623E3D10] (AR v2)
No tracks could be verified as accurate
You may have a different pressing from the one(s) in the database
End of status report
---- CUETools DB Plugin V2.1.3
[CTDB TOCID: RVeraM0Qnqh6y8GuRWN24j.fwdo-] disk not present in database, Submit result: RVeraM0Qnqh6y8GuRWN24j.fwdo- has been uploaded
==== Log checksum 188842F1C572B755AC65F8581031F9FC7998E61F0526AA73C7D1A47803A645FE ====

CD2

Exact Audio Copy V1.0 beta 3 from 29. August 2011
EAC extraction logfile from 9. December 2014, 12:26
Janacek / Katja Kabanowa, Richter CD2
Used drive : TS8XDVDSTRANSCEND Adapter: 1 ID: 1
Read mode : Secure
Utilize accurate stream : Yes
Defeat audio cache : Yes
Make use of C2 pointers : No
Read offset correction : 6
Overread into Lead-In and Lead-Out : No
Fill up missing offset samples with silence : Yes
Delete leading and trailing silent blocks : No
Null samples used in CRC calculations : Yes
Used interface : Native Win32 interface for Win NT & 2000
Used output format : Monkey's Audio Lossless Encoder
Selected bitrate : High Lossless Compression
Quality : High
Add ID3 tag : Yes
Command line compressor : C:\Program Files (x86)\Exact Audio Copy\MAC\MAC.exe
TOC of the extracted CD
Track | Start | Length | Start sector | End sector
---------------------------------------------------------
1 | 0:00.00 | 0:32.48 | 0 | 2447
2 | 0:32.48 | 8:40.06 | 2448 | 41453
3 | 9:12.54 | 0:44.10 | 41454 | 44763
4 | 9:56.64 | 21:26.50 | 44764 | 141263
Range status and errors
Selected range
Filename D:\EAC\Janacek - Katja Kabanowa, Richter CD2.wav
Peak level 97.0 %
Extraction speed 1.6 X
Range quality 100.0 %
Test CRC 61BA527F
Copy CRC 61BA527F
Copy OK
No errors occurred
AccurateRip summary
Track 1 accurately ripped (confidence 1) [A95D1DD5] (AR v1)
Track 2 accurately ripped (confidence 1) [FD050D5C] (AR v1)
Track 3 accurately ripped (confidence 1) [322699D3] (AR v1)
Track 4 accurately ripped (confidence 1) [EBD7BBDC] (AR v1)
All tracks accurately ripped
End of status report
---- CUETools DB Plugin V2.1.3
[CTDB TOCID: BostTv_0e6gIzGJ9X.grfjmGqdM-] disk not present in database, Submit result: unrecognized or virtual drive
==== Log checksum 565A7CF2610560E29819415CB4A067C5BB85AE11765300CC0662847FF6BF825B ====

Содержание индексной карты (.CUE)

CD1

REM GENRE Opera
REM DATE 1949
REM DISCID 32107D06
REM COMMENT "ExactAudioCopy v1.0b3"
PERFORMER "Janacek"
TITLE "Katja Kabanowa, Richter CD1"
FILE "Janacek - Katja Kabanowa, Richter CD1.ape" WAVE
TRACK 01 AUDIO
TITLE "Scene 1"
PERFORMER "Janacek"
FLAGS DCP
INDEX 01 00:00:00
TRACK 02 AUDIO
TITLE "Narrater"
PERFORMER "Janacek"
FLAGS DCP
INDEX 01 17:39:60
TRACK 03 AUDIO
TITLE "Scene 2"
PERFORMER "Janacek"
FLAGS DCP
INDEX 01 18:20:49
TRACK 04 AUDIO
TITLE "Scene 3"
PERFORMER "Janacek"
FLAGS DCP
INDEX 01 38:00:74
TRACK 05 AUDIO
TITLE "Narrater"
PERFORMER "Janacek"
FLAGS DCP
INDEX 01 51:21:30
TRACK 06 AUDIO
TITLE "Scene 4"
PERFORMER "Janacek"
FLAGS DCP
INDEX 01 51:51:30

CD2

REM GENRE Opera
REM DATE 1949
REM DISCID 2D075B04
REM COMMENT "ExactAudioCopy v1.0b3"
PERFORMER "Janacek"
TITLE "Katja Kabanowa, Richter CD2"
FILE "Janacek - Katja Kabanowa, Richter CD2.ape" WAVE
TRACK 01 AUDIO
TITLE "Narrater"
PERFORMER "Janacek"
FLAGS DCP
INDEX 01 00:00:00
TRACK 02 AUDIO
TITLE "Scene 5"
PERFORMER "Janacek"
FLAGS DCP
INDEX 01 00:32:48
TRACK 03 AUDIO
TITLE "Narrater"
PERFORMER "Janacek"
FLAGS DCP
INDEX 01 09:12:54
TRACK 04 AUDIO
TITLE "Scene 6"
PERFORMER "Janacek"
FLAGS DCP
INDEX 01 09:56:64
Доп. информация:
This is one of the most surprising and wholly unexpected discoveries in the pantheon of historical opera recordings: a recording of Janácek's opera Katja Kabanova from a production prepared for the ruined, impoverished Dresden Staatsoper in August 1949, a mere month before the iron curtain fell upon East Germany. It comes from six early magnetophon tapes in the archives of Berlin radio; forgotten, it is about the only tape of its kind that wasn't "bulked" at some point or plundered by privateers. The sound quality is excellent; state of the art for 1949, and yet that is not the only thing that is so captivating about this Katja Kabanova. It demonstrates that the Dresden opera, despite its bombed-out building and practically non-existent budget, was in excellent shape musically in the years following World War II.
The performance is led by giga-obscure conductor Ernst Richter, and this might be his only extant recording, as Richter died sometime in the early 1950s. Richter's control of the Dresden Staatskapelle is so secure and his phrasing so expressive that after hearing the recording one wonders if he had survived that we would still be talking in such exalted terms about his contemporaries Georg Solti and Herbert von Karajan as is the prevailing trend. The performers, too, are first-class -- and for many of them this Katja Kabanova is their sole representation, as the communist partition of East Germany led to several of them being declared "personae non gratae" under the Soviet-controlled state, effectively ending their careers. It is heartening that this tape remains to speak for the artistry of these performers, particularly as this production of Katja Kabanova was a flop -- Janácek's serious and tragic property simply wasn't a vehicle compatible with the entertainment needs of war-weary, cash poor Dresdeners of 1949. Although interrupted at points by brief comments in German to help elucidate the plot for radio listeners, this performance of the opera is complete.
Fifty-seven years after it was made, this recording of Katja Kabanova is finally released as the 16th entry in Profil's Staatskapelle Dresden Edition. The opera is presented in a superb German translation made by composer and amanuensis to Franz Kafka Max Brod; the text is sadly not included here, but the recording still might prove useful to those familiar with German who, nevertheless, find the Czech language impenetrable. For enthusiasts of historical opera, Profil's Katja Kabanova is a must.



Показать сообщения:    

Текущее время: 03-Дек 14:37

Часовой пояс: UTC + 3


Вы не можете начинать темы
Вы не можете отвечать на сообщения
Вы не можете редактировать свои сообщения
Вы не можете удалять свои сообщения
Вы не можете голосовать в опросах
Вы не можете прикреплять файлы к сообщениям
Вы не можете скачивать файлы