Цивилизация. Жизнь и тайны Даниила Андреева (Виктор Ющенко) [1999, документальный, биографический, VHSRip] (ОРТ)


Статистика раздачи [Обновить пиров]
Размер:  1.8 GB   |    Зарегистрирован:  8 месяцев 15 дней   |    Скачан:  0 раз

Полного источника не было: Никогда

Личеров:  3  [  0 KB/s  ]   Подробная статистика пиров
 
   
 
 
 

[Цитировать]

Цивилизация. Жизнь и тайны Даниила Андреева- Дата/Год выпуска: 1999
Страна: Россия
Жанр: документальный, биографический
Продолжительность: 00:27:32
Перевод: Не требуется
Режиссер: Виктор Ющенко
Производство: АСС-ТВ по заказу "ОРТ"-Описание: Научно-популярная программа под руководством Льва Николаева. Изучает историю научного, технического и культурного развития человечества, общий процесс совершенствования человека, духа и общества независимо от национальных, географических и религиозных особенностей. В эфире с 1998 года.1tv.ru-В этом выпуске рассказывается о русском поэте и писателе Данииле Андрееве.-Релиз от: hukin07-Доп. информацияЗапись с канала 1999г.-качество: VHSRip
формат: MPG
Видео: MPEG2 Video 720x576 (4:3), 8 950 Kbps, 25 fps
Аудио: MPEG Audio, 48Hz, stereo, 256kbps, 2 ch

MediaInfo

General
Complete name : D:\Раздачи\Цивилизация. Жизнь и тайны Даниила Андреева_VHSRip by hukin07.mpg
Format : MPEG-PS
File size : 1.80 GiB
Duration : 27mn 32s
Overall bit rate mode : Variable
Overall bit rate : 9 353 Kbps
Writing library : (c) 1998-2011 Womble Multimedia, Inc. / MPEG Video Wizard DVD 5.0.1.100 (03/2011) / Dec 15 2011
Video
ID : 224 (0xE0)
Format : MPEG Video
Format version : Version 2
Format profile : Main@Main
Format settings, BVOP : Yes
Format settings, Matrix : Custom
Format settings, GOP : M=3, N=15
Duration : 27mn 31s
Bit rate mode : Variable
Bit rate : 8 950 Kbps
Width : 720 pixels
Height : 576 pixels
Display aspect ratio : 4:3
Frame rate : 25.000 fps
Standard : PAL
Color space : YUV
Chroma subsampling : 4:2:0
Bit depth : 8 bits
Scan type : Interlaced
Scan order : Top Field First
Compression mode : Lossy
Bits/(Pixel*Frame) : 0.863
Time code of first frame : 00:00:00:00
Time code source : Group of pictures header
Stream size : 1.71 GiB (95%)
Writing library : (c) 1998-2011 Womble Multimedia, Inc. / MPEG Video Wizard DVD 5.0.1.100 (03/2011) / Dec 15 2011
Audio
ID : 192 (0xC0)
Format : MPEG Audio
Format version : Version 1
Format profile : Layer 2
Duration : 27mn 32s
Bit rate mode : Constant
Bit rate : 256 Kbps
Channel(s) : 2 channels
Sampling rate : 48.0 KHz
Compression mode : Lossy
Delay relative to video : -80ms
Stream size : 50.4 MiB (3%)
Menu

Скриншоты

[teatrix.ru].t19659.torrent 
Торрент: Зарегистрирован [ 2016-03-19 00:04 ] · CEA5E65B5CDB09A8F4A12BF637BD5F7D7A0A55ED

Скачать .torrent

Скачать

19 KB

Статус: проверено
Скачан: 0 раз
Размер: 1.8 GB
terms.php



Быстрый ответ

Имя:

      
Для отправки сообщений необходимо включить JavaScript
Показать сообщения:    

Текущее время: 03-Дек 05:27

Часовой пояс: UTC + 3


Вы можете начинать темы
Вы можете отвечать на сообщения
Вы не можете редактировать свои сообщения
Вы не можете удалять свои сообщения
Вы не можете голосовать в опросах
Вы не можете прикреплять файлы к сообщениям
Вы можете скачивать файлы