(Opera) Верди - Макбет / Verdi - Macbeth (Callas, Mascherini, Tajo, Penno, Vercelli - Orchestra del Teatro alla Scala di Milano, de Sabata) - 2006, APE (image+.cue) lossless


 

[Цитировать]

Giuseppe Verdi (1813-1901) - MacBeth
Жанр: Opera
Страна-производитель диска: EU
Год издания диска: 2006
Издатель (лейбл): Documents
Номер по каталогу: 224012-311
Дата записи: 1952
Аудиокодек: APE
Тип рипа: image+.cue
Битрейт аудио: lossless
Продолжительность: 74'14+64'32
Источник: собственный рип
Наличие сканов в содержимом раздачи: да
Треклист:

CD1

01. Preludio
02. Act 1 Scene 1 - Che faceste? Dite su!
03. Act 1 Scene 1 - Giorno non vidi mai
04. Act 1 Scene 1 - Pro Macbetto! Il tuo signore
05. Act 1 Scene 1 - Due vaticini compiuti or sono
06. Act 1 Scene 1 - S'allontanarono!
07. Act 1 Scene 2 - Nel di della vittoria io le incontrai
08. Act 1 Scene 2 - Vien! t'affretta!
09. Act 1 Scene 2 - Al cader della sera il re qui giunge
10. Act 1 Scene 2 - Or tutti sorgete, ministri infernali
11. Act 1 Scene 2 - Oh, donna mia!
12. Act 1 Scene 2 - Sappia la sposa mia
13. Act 1 Scene 2 - Regna il sonno su tutti
14. Act 1 Scene 2 - Fatal mia donna! un murmure
15. Act 1 Scene 2 - Allor questa voce m'intesi nel petto
16. Act 1 Scene 2 - Il pugnal la riportate
17. Act 1 Scene 2 - Di destarlo per tempo il re m'impose
18. Act 1 Scene 2 - Schiudi, inferno
19. Act 2 Scene 1 - Perche mi sfuggi
20. Act 2 Scene 1 - La luce langue
21. Act 2 Scene 2 - Chi v'impose unirvi a noi?
22. Act 2 Scene 2 - Studia il passo, o mio figlio!
23. Act 2 Scene 2 - Come dal ciel precipita
24. Act 2 Scene 3 - Salve, o re!
25. Act 2 Scene 3 - Si colmi il calice
26. Act 2 Scene 3 - Tu di sangue hai brutto il volto
27. Act 2 Scene 3 - Che ti scosta, o re mio sposo
28. Act 2 Scene 3 - Si colmi il calice
29. Act 2 Scene 3 - A Sangue me quell'ombra chiede

CD2

01. Act 3 - Tre volte miagola la gatta in fregola
02. Act 3 - Ballo
03. Act 3 - Finche appelli
04. Act 3 - Fuggi, regal fantasima
05. Act 3 - Ondine e silfidi dall'ali candide
06. Act 3 - Ove son io?
07. Act 4 Scene 1 - Patria oppressa!
08. Act 4 Scene One - O figli miei!
09. Act 4 Scene One - Ah, la paterna mano
10. Act 4 Scene One - Dove siam? che bosco e quello?
11. Act 4 Scene Two - Vegliammo invan due notti
12. Act Four: Scene Two - Una macchia e qui tuttora
13. Act Four: Scene Three - Perfidi! All'Anglo contro me v'unite!
14. Act Four: Scene Three - Pieta, rispetto, amore
15. Act Four: Scene Three - Ella e morta!
16. Act Four: Scene Four - All'armi! all'armi!
17. Act Four: Scene Four - Vittoria!
Исполнители:
Giuseppe Verdi (1813-1901) - MacBeth
Melodrama in Four acts
Libretto: Francesco Maria Piave
Macbeth - Enzo Mascherini (Baritone)
Lady Macbeth - Maria Callas (Soprano)
Banco - Italo Tajo (Bass)
Macduff - Gino Penno (Tenor)
Malcolm - Luciano Della Pergola (Tenor)
Una dama - Angela Vercelli (Mezzo Soprano)
Un Dottore - Dario Caselli (Bass)
Un servo - Attilio Barbesi (Bass)
Un Assassino - Mario Tommasini (Bass)
Un Araldo - Ivo Vinco (Bass)
Chorus and Orchestra of the Teatro alla Scala (Milan)
Conductor Victor de Sabata

Лог создания рипа

CD1

Exact Audio Copy V1.0 beta 3 from 29. August 2011
EAC extraction logfile from 27. September 2014, 17:30
Verdi / Macbeth, de Sabata CD1
Used drive : TS8XDVDSTRANSCEND Adapter: 1 ID: 1
Read mode : Secure
Utilize accurate stream : Yes
Defeat audio cache : Yes
Make use of C2 pointers : No
Read offset correction : 6
Overread into Lead-In and Lead-Out : No
Fill up missing offset samples with silence : Yes
Delete leading and trailing silent blocks : No
Null samples used in CRC calculations : Yes
Used interface : Native Win32 interface for Win NT & 2000
Used output format : Monkey's Audio Lossless Encoder
Selected bitrate : High Lossless Compression
Quality : High
Add ID3 tag : No
Command line compressor : C:\Program Files (x86)\Exact Audio Copy\MAC\MAC.exe
TOC of the extracted CD
Track | Start | Length | Start sector | End sector
---------------------------------------------------------
1 | 0:00.00 | 2:45.69 | 0 | 12443
2 | 2:45.69 | 3:28.43 | 12444 | 28086
3 | 6:14.37 | 3:21.24 | 28087 | 43185
4 | 9:35.61 | 0:53.04 | 43186 | 47164
5 | 10:28.65 | 2:58.67 | 47165 | 60581
6 | 13:27.57 | 2:04.19 | 60582 | 69900
7 | 15:32.01 | 2:15.60 | 69901 | 80085
8 | 17:47.61 | 3:03.00 | 80086 | 93810
9 | 20:50.61 | 1:02.15 | 93811 | 98475
10 | 21:53.01 | 1:53.16 | 98476 | 106966
11 | 23:46.17 | 3:15.48 | 106967 | 121639
12 | 27:01.65 | 3:40.19 | 121640 | 138158
13 | 30:42.09 | 0:40.56 | 138159 | 141214
14 | 31:22.65 | 1:19.33 | 141215 | 147172
15 | 32:42.23 | 2:58.53 | 147173 | 160575
16 | 35:41.01 | 1:43.25 | 160576 | 168325
17 | 37:24.26 | 2:39.71 | 168326 | 180321
18 | 40:04.22 | 5:43.67 | 180322 | 206113
19 | 45:48.14 | 2:27.24 | 206114 | 217162
20 | 48:15.38 | 4:07.55 | 217163 | 235742
21 | 52:23.18 | 3:08.63 | 235743 | 249905
22 | 55:32.06 | 1:08.51 | 249906 | 255056
23 | 56:40.57 | 3:10.32 | 255057 | 269338
24 | 59:51.14 | 1:57.12 | 269339 | 278125
25 | 61:48.26 | 1:28.31 | 278126 | 284756
26 | 63:16.57 | 0:34.20 | 284757 | 287326
27 | 63:51.02 | 2:34.20 | 287327 | 298896
28 | 66:25.22 | 3:08.16 | 298897 | 313012
29 | 69:33.38 | 4:40.47 | 313013 | 334059
Range status and errors
Selected range
Filename D:\EAC\Verdi - Macbeth, de Sabata CD1.wav
Peak level 100.0 %
Extraction speed 3.5 X
Range quality 99.9 %
Test CRC 5F950FDD
Copy CRC 5F950FDD
Copy OK
No errors occurred
AccurateRip summary
Track 1 accurately ripped (confidence 4) [30D6B404] (AR v2)
Track 2 accurately ripped (confidence 4) [F82101E3] (AR v2)
Track 3 accurately ripped (confidence 4) [8F4BC8C2] (AR v2)
Track 4 accurately ripped (confidence 4) [92D9F710] (AR v2)
Track 5 accurately ripped (confidence 4) [17866379] (AR v2)
Track 6 accurately ripped (confidence 4) [F97E065B] (AR v2)
Track 7 accurately ripped (confidence 4) [73A8F58B] (AR v2)
Track 8 accurately ripped (confidence 4) [98F60D5E] (AR v2)
Track 9 accurately ripped (confidence 4) [2284A6D5] (AR v2)
Track 10 accurately ripped (confidence 4) [6BAD1DCD] (AR v2)
Track 11 accurately ripped (confidence 4) [D84B34EA] (AR v2)
Track 12 accurately ripped (confidence 4) [44014B87] (AR v2)
Track 13 accurately ripped (confidence 4) [EB9F85AA] (AR v2)
Track 14 accurately ripped (confidence 4) [8F75DEFC] (AR v2)
Track 15 accurately ripped (confidence 4) [C0B9E811] (AR v2)
Track 16 accurately ripped (confidence 4) [05DAB857] (AR v2)
Track 17 accurately ripped (confidence 4) [31FA6EBA] (AR v2)
Track 18 accurately ripped (confidence 4) [29452DE5] (AR v2)
Track 19 accurately ripped (confidence 4) [88E44999] (AR v2)
Track 20 accurately ripped (confidence 4) [03D75499] (AR v2)
Track 21 accurately ripped (confidence 4) [F4578A1C] (AR v2)
Track 22 accurately ripped (confidence 4) [5F73B9BD] (AR v2)
Track 23 accurately ripped (confidence 4) [83ACE055] (AR v2)
Track 24 accurately ripped (confidence 4) [2E1B5C37] (AR v2)
Track 25 accurately ripped (confidence 4) [76730112] (AR v2)
Track 26 accurately ripped (confidence 4) [116FF216] (AR v2)
Track 27 accurately ripped (confidence 4) [2A28F584] (AR v2)
Track 28 accurately ripped (confidence 4) [ABAD224A] (AR v2)
Track 29 accurately ripped (confidence 4) [8D11A670] (AR v2)
All tracks accurately ripped
End of status report
---- CUETools DB Plugin V2.1.3
[CTDB TOCID: GTSnbix4DmbN5a_wGnP_kKNnql0-] found, Submit result: unrecognized or virtual drive
[d0b5f48a] (4/4) Accurately ripped
==== Log checksum 2680786FD27AAC0F4A4E6DDCA0F2451A190A80918DCAC025AD5773A9D71D7825 ====

CD2

Exact Audio Copy V1.0 beta 3 from 29. August 2011
EAC extraction logfile from 27. September 2014, 17:14
Verdi / Macbeth, de Sabata CD2
Used drive : TSSTcorpCDDVDW SE-208AB Adapter: 1 ID: 0
Read mode : Secure
Utilize accurate stream : Yes
Defeat audio cache : Yes
Make use of C2 pointers : No
Read offset correction : 6
Overread into Lead-In and Lead-Out : No
Fill up missing offset samples with silence : Yes
Delete leading and trailing silent blocks : No
Null samples used in CRC calculations : Yes
Used interface : Native Win32 interface for Win NT & 2000
Used output format : Monkey's Audio Lossless Encoder
Selected bitrate : High Lossless Compression
Quality : High
Add ID3 tag : No
Command line compressor : C:\Program Files (x86)\Exact Audio Copy\MAC\MAC.exe
TOC of the extracted CD
Track | Start | Length | Start sector | End sector
---------------------------------------------------------
1 | 0:00.00 | 3:54.16 | 0 | 17565
2 | 3:54.16 | 9:59.47 | 17566 | 62537
3 | 13:53.63 | 6:49.20 | 62538 | 93232
4 | 20:43.08 | 3:41.36 | 93233 | 109843
5 | 24:24.44 | 1:55.55 | 109844 | 118523
6 | 26:20.24 | 3:04.47 | 118524 | 132370
7 | 29:24.71 | 6:28.25 | 132371 | 161495
8 | 35:53.21 | 1:00.00 | 161496 | 165995
9 | 36:53.21 | 2:41.23 | 165996 | 178093
10 | 39:34.44 | 2:59.19 | 178094 | 191537
11 | 42:33.63 | 4:00.28 | 191538 | 209565
12 | 46:34.16 | 6:10.28 | 209566 | 237343
13 | 52:44.44 | 1:36.08 | 237344 | 244551
14 | 54:20.52 | 3:10.14 | 244552 | 258815
15 | 57:30.66 | 1:33.39 | 258816 | 265829
16 | 59:04.30 | 1:56.64 | 265830 | 274593
17 | 61:01.19 | 3:31.10 | 274594 | 290428
Range status and errors
Selected range
Filename D:\EAC\Verdi - Macbeth, de Sabata CD2.wav
Peak level 100.0 %
Extraction speed 4.9 X
Range quality 100.0 %
Test CRC EC751326
Copy CRC EC751326
Copy OK
No errors occurred
AccurateRip summary
Track 1 accurately ripped (confidence 4) [95499B0C] (AR v2)
Track 2 accurately ripped (confidence 4) [3F633DDF] (AR v2)
Track 3 accurately ripped (confidence 4) [2010709F] (AR v2)
Track 4 accurately ripped (confidence 4) [DA1E03D1] (AR v2)
Track 5 accurately ripped (confidence 4) [C49A04D9] (AR v2)
Track 6 accurately ripped (confidence 4) [246FD821] (AR v2)
Track 7 accurately ripped (confidence 4) [05C5E471] (AR v2)
Track 8 accurately ripped (confidence 4) [8E684B32] (AR v2)
Track 9 accurately ripped (confidence 4) [7BF720F9] (AR v2)
Track 10 accurately ripped (confidence 4) [5D4CE1D4] (AR v2)
Track 11 accurately ripped (confidence 4) [9387A1DE] (AR v2)
Track 12 accurately ripped (confidence 4) [44989E49] (AR v2)
Track 13 accurately ripped (confidence 4) [9BACD891] (AR v2)
Track 14 accurately ripped (confidence 4) [4977BB59] (AR v2)
Track 15 accurately ripped (confidence 4) [1EBCBA54] (AR v2)
Track 16 accurately ripped (confidence 4) [4A0BA3B2] (AR v2)
Track 17 accurately ripped (confidence 4) [4B95B7DE] (AR v2)
All tracks accurately ripped
End of status report
---- CUETools DB Plugin V2.1.3
[CTDB TOCID: 3bqTTklwq_6E4UjyqJLF23iCmqs-] found, Submit result: 3bqTTklwq_6E4UjyqJLF23iCmqs- has been confirmed
[346da307] (5/5) Accurately ripped
==== Log checksum F1AFC4C0BCEAEAD61FD80B189FB75053A300E5E3E20EC95724216ED99F4CBBDA ====

Содержание индексной карты (.CUE)

CD1

REM GENRE Opera
REM DATE 1952
REM DISCID BD11661D
REM COMMENT "ExactAudioCopy v1.0b3"
PERFORMER "Verdi"
TITLE "Macbeth, de Sabata CD1"
FILE "Verdi - Macbeth, de Sabata CD1.ape" WAVE
TRACK 01 AUDIO
TITLE "Preludio"
PERFORMER "Verdi"
ISRC DEU240655329
FLAGS DCP
INDEX 01 00:00:00
TRACK 02 AUDIO
TITLE "Act 1, Scene 1 - Che faceste? Dite su!"
PERFORMER "Verdi"
ISRC DEU240655330
FLAGS DCP
INDEX 01 02:45:69
TRACK 03 AUDIO
TITLE "Giorno non vidi mai"
PERFORMER "Verdi"
ISRC DEU240655331
FLAGS DCP
INDEX 01 06:14:37
TRACK 04 AUDIO
TITLE "Pro Macbetto! Il tuo signore"
PERFORMER "Verdi"
ISRC DEU240655332
FLAGS DCP
INDEX 01 09:35:61
TRACK 05 AUDIO
TITLE "Due vaticini compiuti or sono"
PERFORMER "Verdi"
ISRC DEU240655333
FLAGS DCP
INDEX 01 10:28:65
TRACK 06 AUDIO
TITLE "S'allontanarono!"
PERFORMER "Verdi"
ISRC DEU240655334
FLAGS DCP
INDEX 01 13:27:57
TRACK 07 AUDIO
TITLE "Act 1, Scene 2 - Nel dì della vittoria io le incontrai"
PERFORMER "Verdi"
ISRC DEU240655335
FLAGS DCP
INDEX 01 15:32:01
TRACK 08 AUDIO
TITLE "Vieni! T'affretta!"
PERFORMER "Verdi"
ISRC DEU240655336
FLAGS DCP
INDEX 01 17:47:61
TRACK 09 AUDIO
TITLE "Al cader della sera il re qui giunge"
PERFORMER "Verdi"
ISRC DEU240655337
FLAGS DCP
INDEX 01 20:50:61
TRACK 10 AUDIO
TITLE "Or tutti sorgete, ministri infernali"
PERFORMER "Verdi"
ISRC DEU240655338
FLAGS DCP
INDEX 01 21:53:01
TRACK 11 AUDIO
TITLE "Oh, donna mia!"
PERFORMER "Verdi"
ISRC DEU240655339
FLAGS DCP
INDEX 01 23:46:17
TRACK 12 AUDIO
TITLE "Sappia la sposa mia"
PERFORMER "Verdi"
ISRC DEU240655340
FLAGS DCP
INDEX 01 27:01:65
TRACK 13 AUDIO
TITLE "Regna il sonno su tutti"
PERFORMER "Verdi"
ISRC DEU240655341
FLAGS DCP
INDEX 01 30:42:09
TRACK 14 AUDIO
TITLE "Fatal mia donna! Un murmure"
PERFORMER "Verdi"
ISRC DEU240655342
FLAGS DCP
INDEX 01 31:22:65
TRACK 15 AUDIO
TITLE "Allor questa voce m'intesi nel petto"
PERFORMER "Verdi"
ISRC DEU240655343
FLAGS DCP
INDEX 01 32:42:23
TRACK 16 AUDIO
TITLE "Il pugnal là riportate"
PERFORMER "Verdi"
ISRC DEU240655344
FLAGS DCP
INDEX 01 35:41:01
TRACK 17 AUDIO
TITLE "Di destarlo per tempo il re m'impose"
PERFORMER "Verdi"
ISRC DEU240655345
FLAGS DCP
INDEX 01 37:24:26
TRACK 18 AUDIO
TITLE "Schiudi, inferno"
PERFORMER "Verdi"
ISRC DEU240655346
FLAGS DCP
INDEX 01 40:04:22
TRACK 19 AUDIO
TITLE "Act 2, Scene 1 - Perché mi sfuggi"
PERFORMER "Verdi"
ISRC DEU240655347
FLAGS DCP
INDEX 01 45:48:14
TRACK 20 AUDIO
TITLE "La luce langue"
PERFORMER "Verdi"
ISRC DEU240655348
FLAGS DCP
INDEX 01 48:15:38
TRACK 21 AUDIO
TITLE "Act 2, Scene 2 - Chi v'impose unirvi a noi?"
PERFORMER "Verdi"
ISRC DEU240655349
FLAGS DCP
INDEX 01 52:23:18
TRACK 22 AUDIO
TITLE "Studia il passo, o mio figlio!"
PERFORMER "Verdi"
ISRC DEU240655350
FLAGS DCP
INDEX 01 55:32:06
TRACK 23 AUDIO
TITLE "Come dal ciel precipita"
PERFORMER "Verdi"
ISRC DEU240655351
FLAGS DCP
INDEX 01 56:40:57
TRACK 24 AUDIO
TITLE "Act 2, Scene 3 - Salve, o re!"
PERFORMER "Verdi"
ISRC DEU240655352
FLAGS DCP
INDEX 01 59:51:14
TRACK 25 AUDIO
TITLE "Si colmi il calice"
PERFORMER "Verdi"
ISRC DEU240655353
FLAGS DCP
INDEX 01 61:48:26
TRACK 26 AUDIO
TITLE "Tu di sangue hai brutto il volto"
PERFORMER "Verdi"
ISRC DEU240655354
FLAGS DCP
INDEX 01 63:16:57
TRACK 27 AUDIO
TITLE "Che ti scosta, o re mio sposo"
PERFORMER "Verdi"
ISRC DEU240655355
FLAGS DCP
INDEX 01 63:51:02
TRACK 28 AUDIO
TITLE "Si colmi il calice"
PERFORMER "Verdi"
ISRC DEU240655356
FLAGS DCP
INDEX 01 66:25:22
TRACK 29 AUDIO
TITLE "Sangue a me quell'ombra chiede"
PERFORMER "Verdi"
ISRC DEU240655357
FLAGS DCP
INDEX 01 69:33:38

CD2

REM GENRE Opera
REM DATE 1952
REM DISCID 000F2011
REM COMMENT "ExactAudioCopy v1.0b3"
PERFORMER "Verdi"
TITLE "Macbeth, de Sabata CD2"
FILE "Verdi - Macbeth, de Sabata CD2.ape" WAVE
TRACK 01 AUDIO
TITLE "Act 3 - Tre volte miagola la gatta in fregola"
PERFORMER "Verdi"
ISRC DEU240655358
FLAGS DCP
INDEX 01 00:00:00
TRACK 02 AUDIO
TITLE "Ballet"
PERFORMER "Verdi"
ISRC DEU240655359
FLAGS DCP
INDEX 01 03:54:16
TRACK 03 AUDIO
TITLE "Finché appelli"
PERFORMER "Verdi"
ISRC DEU240655360
FLAGS DCP
INDEX 01 13:53:63
TRACK 04 AUDIO
TITLE "Fuggi, regal fantasma"
PERFORMER "Verdi"
ISRC DEU240655361
FLAGS DCP
INDEX 01 20:43:08
TRACK 05 AUDIO
TITLE "Ondine e silfidi dall'ali candide"
PERFORMER "Verdi"
ISRC DEU240655361
FLAGS DCP
INDEX 01 24:24:44
TRACK 06 AUDIO
TITLE "Ove son io?"
PERFORMER "Verdi"
ISRC DEU240655363
FLAGS DCP
INDEX 01 26:20:24
TRACK 07 AUDIO
TITLE "Act 4, Scene 1 - Patria oppressa!"
PERFORMER "Verdi"
ISRC DEU240655364
FLAGS DCP
INDEX 01 29:24:71
TRACK 08 AUDIO
TITLE "O figli miei!"
PERFORMER "Verdi"
ISRC DEU240655365
FLAGS DCP
INDEX 01 35:53:21
TRACK 09 AUDIO
TITLE "Ah, la paterna mano"
PERFORMER "Verdi"
ISRC DEU240655366
FLAGS DCP
INDEX 01 36:53:21
TRACK 10 AUDIO
TITLE "Dove siam? che bosco è quello?"
PERFORMER "Verdi"
ISRC DEU240655367
FLAGS DCP
INDEX 01 39:34:44
TRACK 11 AUDIO
TITLE "Act 4, Scene 2 - Vegliammo invan due notti"
PERFORMER "Verdi"
ISRC DEU240655368
FLAGS DCP
INDEX 01 42:33:63
TRACK 12 AUDIO
TITLE "Una macchia è qui tuttora"
PERFORMER "Verdi"
ISRC DEU240655369
FLAGS DCP
INDEX 01 46:34:16
TRACK 13 AUDIO
TITLE "Act 4, Scene 3 - Perfidi! All'Anglo contro me v'unite!"
PERFORMER "Verdi"
ISRC DEU240655370
FLAGS DCP
INDEX 01 52:44:44
TRACK 14 AUDIO
TITLE "Pietà rispetto, amore"
PERFORMER "Verdi"
ISRC DEU240655371
FLAGS DCP
INDEX 01 54:20:52
TRACK 15 AUDIO
TITLE "Ella è morta!"
PERFORMER "Verdi"
ISRC DEU240655372
FLAGS DCP
INDEX 01 57:30:66
TRACK 16 AUDIO
TITLE "Act 4, Scene 4 - All'armi! All'armi!"
PERFORMER "Verdi"
ISRC DEU240655373
FLAGS DCP
INDEX 01 59:04:30
TRACK 17 AUDIO
TITLE "Vittoria!"
PERFORMER "Verdi"
ISRC DEU240655374
FLAGS DCP
INDEX 01 61:01:19



Показать сообщения:    

Текущее время: 06-Дек 15:10

Часовой пояс: UTC + 3


Вы не можете начинать темы
Вы не можете отвечать на сообщения
Вы не можете редактировать свои сообщения
Вы не можете удалять свои сообщения
Вы не можете голосовать в опросах
Вы не можете прикреплять файлы к сообщениям
Вы не можете скачивать файлы