(Classical) Marcel Landowski - Le Fou; Ouverture Tableau (Alain Lombard; Orchestre Philharmonique De Strasbourg; Golea; Choeurs De L'Opera Du Rhin, Wagner; Carlson, Van Dam, Huttenlocher, Corazza, Soli) - 1980, FLAC (image+.cue) lossless


Статистика раздачи [Обновить пиров]
Размер:  336 MB   |    Зарегистрирован:  8 месяцев 22 дня   |    Скачан:  0 раз

Полного источника не было: Никогда

Личеров:  3  [  0 KB/s  ]   Подробная статистика пиров
 
   
 
 
 

[Цитировать]

Marcel Landowski (1915-1999) - Le Fou
Жанр: Classical
Год издания диска: 1980
Издатель (лейбл): Erato
Номер по каталогу:
Дата записи:
Аудиокодек: FLAC
Тип рипа: image+.cue
Битрейт аудио: lossless
Продолжительность: CD1'00:42:02; CD2'00:43:29
Источник: скачано из сети
Наличие сканов в содержимом раздачи: да
Треклист:
CD1
01. Ouverture et 1er Tableau (09:36)
02. 2ème Tableau (20:07)
03. 3ème Tableau (12:19)
CD2
01. 4ème Tableau (23:15)
02. 5ème Tableau (20:14)
Исполнители:
Vocals – Claudine Carlson, José Van Dam, Philippe Huttenlocher, Rémy Corazza
Chœurs De L'Opéra Du Rhin
Chorus Master – Gunter Wagner
Liner Notes – Antoine Goléa
Orchestre Philharmonique De Strasbourg
Alain Lombard

LOG EAC CD1

Exact Audio Copy V1.0 beta 1 from 15. November 2010
EAC extraction logfile from 18. December 2011, 17:40
Marcel Landowski / Le Fou (CD 1)
Used drive : TSSTcorpCDDVDW SH-S223C Adapter: 0 ID: 1
Read mode : Secure
Utilize accurate stream : Yes
Defeat audio cache : Yes
Make use of C2 pointers : No
Read offset correction : 697
Overread into Lead-In and Lead-Out : No
Fill up missing offset samples with silence : Yes
Delete leading and trailing silent blocks : No
Null samples used in CRC calculations : No
Used interface : Native Win32 interface for Win NT & 2000
Used output format : User Defined Encoder
Selected bitrate : 896 kBit/s
Quality : High
Add ID3 tag : No
Command line compressor : C:\Program Files (x86)\Exact Audio Copy\FLAC\FLAC.EXE
Additional command line options : -V -0 -T "artist=%a" -T "title=%t" -T "album=%g" -T "date=%y" -T "tracknumber=%n" -T "genre=%m" %s
TOC of the extracted CD
Track | Start | Length | Start sector | End sector
---------------------------------------------------------
1 | 0:00.00 | 9:36.45 | 0 | 43244
2 | 9:36.45 | 20:07.47 | 43245 | 133816
3 | 29:44.17 | 12:19.73 | 133817 | 189314
Range status and errors
Selected range
Filename F:\Musique\Landowski\Le_Fou\Marcel Landowski - Le Fou (CD 1).wav
Peak level 68.0 %
Extraction speed 4.3 X
Range quality 100.0 %
Test CRC 6A21D7D5
Copy CRC 6A21D7D5
Copy OK
No errors occurred
AccurateRip summary
Track 1 not present in database
Track 2 not present in database
Track 3 not present in database
None of the tracks are present in the AccurateRip database
End of status report
==== Log checksum 6BD698F353637DF179C75C7FEF5F6C13EA1143BFEFEA12E0170C73BBBB30257B ====

LOG EAC CD2

Exact Audio Copy V1.0 beta 1 from 15. November 2010
EAC extraction logfile from 18. December 2011, 18:43
Marcel Landowski / Le Fou (CD 2)
Used drive : TSSTcorpCDDVDW SH-S223C Adapter: 0 ID: 1
Read mode : Secure
Utilize accurate stream : Yes
Defeat audio cache : Yes
Make use of C2 pointers : No
Read offset correction : 697
Overread into Lead-In and Lead-Out : No
Fill up missing offset samples with silence : Yes
Delete leading and trailing silent blocks : No
Null samples used in CRC calculations : No
Used interface : Native Win32 interface for Win NT & 2000
Used output format : User Defined Encoder
Selected bitrate : 896 kBit/s
Quality : High
Add ID3 tag : No
Command line compressor : C:\Program Files (x86)\Exact Audio Copy\FLAC\FLAC.EXE
Additional command line options : -V -0 -T "artist=%a" -T "title=%t" -T "album=%g" -T "date=%y" -T "tracknumber=%n" -T "genre=%m" %s
TOC of the extracted CD
Track | Start | Length | Start sector | End sector
---------------------------------------------------------
1 | 0:00.00 | 23:15.00 | 0 | 104624
2 | 23:15.00 | 20:14.00 | 104625 | 195674
Range status and errors
Selected range
Filename F:\Musique\Landowski\Le_Fou\Marcel Landowski - Le Fou (CD 2).wav
Peak level 84.9 %
Extraction speed 6.9 X
Range quality 100.0 %
Test CRC 92EC12AD
Copy CRC 92EC12AD
Copy OK
No errors occurred
AccurateRip summary
Track 1 not present in database
Track 2 not present in database
None of the tracks are present in the AccurateRip database
End of status report
==== Log checksum B5D1DF27BEFB67958E3E5D09FBD59E501E3BBB648C58CE49D0CF55F1E0909CBB ====
Marcel Landowski - Piano Concerto No. 2 - Ondes Martenot Concerto - Trompette Concerto - 1978
Marcel Landowski - Le Fou - 1980
Marcel Landowski - Le Fantome de l'Opera - 1982
Marcel Landowski - Un Enfant Appele, La Prison - 1984
Marcel Landowski - La Vieille Maison - 1988
Marcel Landowski - Symphonies 1 - 4 - 1990
Marcel Landowski - Messe de l'Aurore - 4 Pieces pour Trompette et Orgue - 1990
mp3
[teatrix.ru].t19672.torrent 
Торрент: Зарегистрирован [ 2016-03-19 00:04 ] · 0CA82A9F8048ABCA087A5F9B019739D9201F95B7

Скачать .torrent

Скачать

15 KB

Статус: проверено
Скачан: 0 раз
Размер: 336 MB
terms.php



Быстрый ответ

Имя:

      
Для отправки сообщений необходимо включить JavaScript
Показать сообщения:    

Текущее время: 10-Дек 09:57

Часовой пояс: UTC + 3


Вы можете начинать темы
Вы можете отвечать на сообщения
Вы не можете редактировать свои сообщения
Вы не можете удалять свои сообщения
Вы не можете голосовать в опросах
Вы не можете прикреплять файлы к сообщениям
Вы можете скачивать файлы