(Classical) Marcel Landowski - Messe de l'Aurore - 4 Pieces pour Trompette et Orgue (Pierre Cao, Orchestre Colonne; Caley, Michael, Brodard, Choeur de l'Orchestre Colonne, Jean Sourisse; Andre, Mitterhofer, Lombard) - 1990, FLAC (image+.cue) lossless


Статистика раздачи [Обновить пиров]
Размер:  281 MB   |    Зарегистрирован:  8 месяцев 23 дня   |    Скачан:  0 раз

Полного источника не было: Никогда

Личеров:  3  [  0 KB/s  ]   Подробная статистика пиров
 
   
 
 
 

[Цитировать]

Marcel Landowski (1915-1999) - Messe de l'Aurore - 4 Pièces pour Trompette et Orgue
Жанр: Classical
Год издания диска: 1990
Издатель (лейбл): Erato
Номер по каталогу:
Дата записи:
Аудиокодек: FLAC
Тип рипа: image+.cue
Битрейт аудио: lossless
Продолжительность: 01:11:04
Источник: скачано из сети
Наличие сканов в содержимом раздачи: да
Треклист:
Messe de l'Aurore (1976-1977) (Pierre Emmanuel)
01. Introït (09:02)
02. Kyrie (08:24)
03. Gloria (07:26)
04. Credo (06:20)
05. Sanctus (05:37)
06. Agnus Dei (07:02)
07. Amen (05:05)
Cahier pour quatre jours pour Trompette et Orgue (1978)
08. Jour du secret intérieur (05:59)
09. Jour de quête de soi (04:41)
10. Jour des regrets et des pardons (05:30)
11. Jour de joie (05:58)
Исполнители:
Ian Caley
Audrey Michael
Michel Brodard
Choeur de l'Orchestre Colonne - Jean Sourisse
Orchestre Colonne
Pierre Cao
Maurice André
Alfred Mitterhofer
Orchestre Philharmonique de Strasbourg
Alain Lombard

LOG EAC

Exact Audio Copy V1.0 beta 3 from 29. August 2011
EAC extraction logfile from 12. January 2012, 23:08
Marcel Landowski (1915-1999) / Messe de l'Aurore - 4 Pièces pour Trompette et Orgue
Used drive : TSSTcorpCD/DVDW TS-H552B Adapter: 3 ID: 1
Read mode : Secure
Utilize accurate stream : Yes
Defeat audio cache : No
Make use of C2 pointers : Yes
Read offset correction : 12
Overread into Lead-In and Lead-Out : No
Fill up missing offset samples with silence : Yes
Delete leading and trailing silent blocks : No
Null samples used in CRC calculations : Yes
Used interface : Native Win32 interface for Win NT & 2000
Used output format : User Defined Encoder
Selected bitrate : 896 kBit/s
Quality : High
Add ID3 tag : No
Command line compressor : C:\Program Files (x86)\Exact Audio Copy\Flac\flac.exe
Additional command line options : -V -0 -T "artist=%artist%" -T "title=%title%" -T "album=%albumtitle%" -T "date=%year%" -T "tracknumber=%tracknr%" -T "genre=%genre%" %source%
TOC of the extracted CD
Track | Start | Length | Start sector | End sector
---------------------------------------------------------
1 | 0:00.00 | 9:02.20 | 0 | 40669
2 | 9:02.20 | 8:24.47 | 40670 | 78516
3 | 17:26.67 | 7:26.13 | 78517 | 111979
4 | 24:53.05 | 6:20.22 | 111980 | 140501
5 | 31:13.27 | 5:37.13 | 140502 | 165789
6 | 36:50.40 | 7:02.27 | 165790 | 197466
7 | 43:52.67 | 5:05.60 | 197467 | 220401
8 | 48:58.52 | 5:59.48 | 220402 | 247374
9 | 54:58.25 | 4:41.12 | 247375 | 268461
10 | 59:39.37 | 5:30.18 | 268462 | 293229
11 | 65:09.55 | 5:58.30 | 293230 | 320109
Range status and errors
Selected range
Filename F:\Musique\Landowski\Messe_de_l_Aurore\Messe de l'Aurore - 4 Pièces pour Trompette et Orgue.wav
Peak level 82.7 %
Extraction speed 10.6 X
Range quality 100.0 %
Test CRC 0BDDE224
Copy CRC 0BDDE224
Copy OK
No errors occurred
AccurateRip summary
Track 1 not present in database
Track 2 not present in database
Track 3 not present in database
Track 4 not present in database
Track 5 not present in database
Track 6 not present in database
Track 7 not present in database
Track 8 not present in database
Track 9 not present in database
Track 10 not present in database
Track 11 not present in database
None of the tracks are present in the AccurateRip database
End of status report
==== Log checksum 7B6C3247E8A09CD5C49D1CAD65F9F499ECA62F8D1C58107A89EE1436D3D835A9 ====
Marcel Landowski - Piano Concerto No. 2 - Ondes Martenot Concerto - Trompette Concerto - 1978
Marcel Landowski - Le Fou - 1980
Marcel Landowski - Le Fantome de l'Opera - 1982
Marcel Landowski - Un Enfant Appele, La Prison - 1984
Marcel Landowski - La Vieille Maison - 1988
Marcel Landowski - Symphonies 1 - 4 - 1990
Marcel Landowski - Messe de l'Aurore - 4 Pieces pour Trompette et Orgue - 1990
mp3
[teatrix.ru].t19674.torrent 
Торрент: Зарегистрирован [ 2016-03-19 00:04 ] · 7BD5A53C73E6FEC9261B9121EC18FF28331A9DEC

Скачать .torrent

Скачать

12 KB

Статус: проверено
Скачан: 0 раз
Размер: 281 MB
terms.php



Быстрый ответ

Имя:

      
Для отправки сообщений необходимо включить JavaScript
Показать сообщения:    

Текущее время: 11-Дек 01:23

Часовой пояс: UTC + 3


Вы можете начинать темы
Вы можете отвечать на сообщения
Вы не можете редактировать свои сообщения
Вы не можете удалять свои сообщения
Вы не можете голосовать в опросах
Вы не можете прикреплять файлы к сообщениям
Вы можете скачивать файлы