(Classical) Marcel Landowski - Symphonies 1-4 (Georges Pretre, Orchestre National de France; Jean Martinon, Orchestre National de L'ORTF ) - 1990, FLAC (image+.cue) lossless


 

[Цитировать]

Marcel Landowski (1915-1999) - Symphonies 1 - 4
Жанр: Classical
Год издания диска: 1990
Издатель (лейбл): Erato
Номер по каталогу:
Дата записи:
Аудиокодек: FLAC
Тип рипа: image+.cue
Битрейт аудио: lossless
Продолжительность: CD1'01:06:29; CD2'00:23:35
Источник: скачано из сети
Наличие сканов в содержимом раздачи: да
Треклист:
CD1
Symphonie No. 1 'Jean de la Peur' (1949)
01. Allegro moderato (09:26)
02. Allegretto scherzando (04:09)
03. Adagio (06:51)
Symphonie No. 3 'Des Espaces' (1965)
04. Grave (10:20)
05. Allegro deciso (06:09)
Symphonie No. 4 (1988)
06. Andante - Allegro moderato (05:34)
07. Allegro vivace (04:16)
08. Calme (04:45)
09. Allegretto (05:57)
10. Allegro moderato - Allegro vivace (09:02)
CD2
Symphonie No. 2 (1963)
01. Allegro moderato (07:26)
02. Adagio (09:36)
03. Allegro vivace (06:33)
Исполнители:
Orchestre National de France
Georges Pretre (cd1)
Orchestre National de L'ORTF
Jean Martinon (cd2)

LOG EAC CD1

Exact Audio Copy V1.0 beta 1 from 15. November 2010
EAC extraction logfile from 14. December 2011, 0:09
Orchestre National de France - Georges Prêtre / Marcel Landowski: Symphonies No. 1, 3 et 4
Used drive : TSSTcorpCDDVDW SH-S223C Adapter: 0 ID: 1
Read mode : Secure
Utilize accurate stream : Yes
Defeat audio cache : Yes
Make use of C2 pointers : No
Read offset correction : 697
Overread into Lead-In and Lead-Out : No
Fill up missing offset samples with silence : Yes
Delete leading and trailing silent blocks : No
Null samples used in CRC calculations : No
Used interface : Native Win32 interface for Win NT & 2000
Used output format : User Defined Encoder
Selected bitrate : 896 kBit/s
Quality : High
Add ID3 tag : No
Command line compressor : C:\Program Files (x86)\Exact Audio Copy\FLAC\FLAC.EXE
Additional command line options : -V -0 -T "artist=%a" -T "title=%t" -T "album=%g" -T "date=%y" -T "tracknumber=%n" -T "genre=%m" %s
TOC of the extracted CD
Track | Start | Length | Start sector | End sector
---------------------------------------------------------
1 | 0:00.00 | 9:26.45 | 0 | 42494
2 | 9:26.45 | 4:09.65 | 42495 | 61234
3 | 13:36.35 | 6:51.47 | 61235 | 92106
4 | 20:28.07 | 10:20.50 | 92107 | 138656
5 | 30:48.57 | 6:09.48 | 138657 | 166379
6 | 36:58.30 | 5:34.50 | 166380 | 191479
7 | 42:33.05 | 4:16.47 | 191480 | 210726
8 | 46:49.52 | 4:45.28 | 210727 | 232129
9 | 51:35.05 | 5:57.00 | 232130 | 258904
10 | 57:32.05 | 9:03.15 | 258905 | 299644
Range status and errors
Selected range
Filename F:\Musique\Landowski\Symphonies\Marcel Landowski- Symphonies No. 1, 3 et 4.wav
Peak level 80.0 %
Extraction speed 1.9 X
Range quality 100.0 %
Test CRC 811A5278
Copy CRC 811A5278
Copy OK
No errors occurred
AccurateRip summary
Track 1 accurately ripped (confidence 1) [579BDC27]
Track 2 accurately ripped (confidence 1) [F0DB696C]
Track 3 accurately ripped (confidence 1) [3924210D]
Track 4 accurately ripped (confidence 1) [E5AEA102]
Track 5 accurately ripped (confidence 1) [33E35700]
Track 6 accurately ripped (confidence 1) [7535A30C]
Track 7 accurately ripped (confidence 1) [3239DF2C]
Track 8 accurately ripped (confidence 1) [CDA55AB7]
Track 9 accurately ripped (confidence 1) [87F462B5]
Track 10 accurately ripped (confidence 1) [60AF1F1D]
All tracks accurately ripped
End of status report
==== Log checksum A00447A79A92A9CAB1534AF92D7F1CC8F26DFDE90F212D58E92AFE933303FF88 ====

LOG EAC CD2

Exact Audio Copy V1.0 beta 1 from 15. November 2010
EAC extraction logfile from 14. December 2011, 0:47
Orchestre National de l'ORTF - Jean Martinon / Marcel Landowski: Symphonie No. 2
Used drive : TSSTcorpCDDVDW SH-S223C Adapter: 0 ID: 1
Read mode : Secure
Utilize accurate stream : Yes
Defeat audio cache : Yes
Make use of C2 pointers : No
Read offset correction : 697
Overread into Lead-In and Lead-Out : No
Fill up missing offset samples with silence : Yes
Delete leading and trailing silent blocks : No
Null samples used in CRC calculations : No
Used interface : Native Win32 interface for Win NT & 2000
Used output format : User Defined Encoder
Selected bitrate : 896 kBit/s
Quality : High
Add ID3 tag : No
Command line compressor : C:\Program Files (x86)\Exact Audio Copy\FLAC\FLAC.EXE
Additional command line options : -V -0 -T "artist=%a" -T "title=%t" -T "album=%g" -T "date=%y" -T "tracknumber=%n" -T "genre=%m" %s
TOC of the extracted CD
Track | Start | Length | Start sector | End sector
---------------------------------------------------------
1 | 0:00.00 | 7:26.60 | 0 | 33509
2 | 7:26.60 | 9:36.52 | 33510 | 76761
3 | 17:03.37 | 6:33.18 | 76762 | 106254
Range status and errors
Selected range
Filename F:\Musique\Landowski\Symphonies\Marcel Landowski- Symphonie No. 2.wav
Peak level 95.3 %
Extraction speed 4.0 X
Range quality 100.0 %
Test CRC 12BFB26E
Copy CRC 12BFB26E
Copy OK
No errors occurred
AccurateRip summary
Track 1 accurately ripped (confidence 2) [F770E8C3]
Track 2 accurately ripped (confidence 2) [A1811BCD]
Track 3 accurately ripped (confidence 2) [5E7A0E47]
All tracks accurately ripped
End of status report
==== Log checksum B274482448B0A8593ED65BAE1279370ACB17617B3F8B726E65D18E19C48A088F ====
Marcel Landowski - Piano Concerto No. 2 - Ondes Martenot Concerto - Trompette Concerto - 1978
Marcel Landowski - Le Fou - 1980
Marcel Landowski - Le Fantome de l'Opera - 1982
Marcel Landowski - Un Enfant Appele, La Prison - 1984
Marcel Landowski - La Vieille Maison - 1988
Marcel Landowski - Symphonies 1 - 4 - 1990
Marcel Landowski - Messe de l'Aurore - 4 Pieces pour Trompette et Orgue - 1990
mp3



Показать сообщения:    

Текущее время: 09-Дек 10:51

Часовой пояс: UTC + 3


Вы не можете начинать темы
Вы не можете отвечать на сообщения
Вы не можете редактировать свои сообщения
Вы не можете удалять свои сообщения
Вы не можете голосовать в опросах
Вы не можете прикреплять файлы к сообщениям
Вы не можете скачивать файлы