Ebru Salli ile Pilates [2013, пилатес, DVDRip] (Видеоурок)


Статистика раздачи [Обновить пиров]
Размер:  503 MB   |    Зарегистрирован:  8 месяцев 20 дней   |    Скачан:  1 раз

Полного источника не было: 4 месяца 20 дней

Личеров:  3  [  0 KB/s  ]   Подробная статистика пиров
 
   
 
 
 

[Цитировать]

Ebru Salli ile Pilates
Страна: Турция
Тематика: пилатес
Тип раздаваемого материала: Видеоурок
Продолжительность: 00:56:58
Год выпуска: 2013
Язык: Турецкий
Перевод: Отсутствует
Описание:
Эбру Салли пилатес легко можно делать дома. Упражнения для среднего уровня. Часть упражнений делается с эластичной лентой и фитболом.-Ebru Sally is another workout of Pilates, which easily can be done at home. At this time the exercises are designed for intermediate level training. Part of the exercise is done with an elastic band and fitbolom.
Качество: DVDRip
Формат: AVI
Видео кодек: DivX
Аудио кодек: MP3
Видео: MPEG-4 Visual at 1 101 Kbps 688 x 384 (1.792) at 25.000 fps
Аудио: MPEG Audio at 128 Kbps 2 channels, 48.0 KHz

Скриншоты

Media Info

General
Complete name : G:\123\Потерянные файлы\Пилатес\Ebru Salli ile Pilates.avi
Format : AVI
Format/Info : Audio Video Interleave
File size : 503 MiB
Duration : 56mn 58s
Overall bit rate : 1 234 Kbps
Writing application : MEncoder SVN-r22963
Writing library : MPlayer
Video
ID : 0
Format : MPEG-4 Visual
Format profile : Simple@L1
Format settings, BVOP : No
Format settings, QPel : No
Format settings, GMC : No warppoints
Format settings, Matrix : Default (H.263)
Codec ID : XVID
Codec ID/Hint : XviD
Duration : 56mn 58s
Bit rate : 1 101 Kbps
Width : 688 pixels
Height : 384 pixels
Display aspect ratio : 16:9
Frame rate : 25.000 fps
Color space : YUV
Chroma subsampling : 4:2:0
Bit depth : 8 bits
Scan type : Progressive
Compression mode : Lossy
Bits/(Pixel*Frame) : 0.167
Stream size : 449 MiB (89%)
Writing library : Lavc51.40.2
Audio
ID : 1
Format : MPEG Audio
Format version : Version 1
Format profile : Layer 3
Mode : Joint stereo
Mode extension : MS Stereo
Codec ID : 55
Codec ID/Hint : MP3
Duration : 56mn 57s
Bit rate mode : Constant
Bit rate : 128 Kbps
Channel(s) : 2 channels
Sampling rate : 48.0 KHz
Compression mode : Lossy
Stream size : 52.1 MiB (10%)
Alignment : Split accross interleaves
Interleave, duration : 500 ms (12.50 video frames)
Interleave, preload duration : 1000 ms
Writing library : LAME3.97
[teatrix.ru].t19683.torrent 
Торрент: Зарегистрирован [ 2016-03-19 00:04 ] · 0C51E49372211473CBCB426481BA7E8095A023A7

Скачать .torrent

Скачать

20 KB

Статус: проверено
Скачан: 1 раз
Размер: 503 MB
terms.php



Быстрый ответ

Имя:

      
Для отправки сообщений необходимо включить JavaScript
Показать сообщения:    

Текущее время: 08-Дек 21:09

Часовой пояс: UTC + 3


Вы можете начинать темы
Вы можете отвечать на сообщения
Вы не можете редактировать свои сообщения
Вы не можете удалять свои сообщения
Вы не можете голосовать в опросах
Вы не можете прикреплять файлы к сообщениям
Вы можете скачивать файлы