(Classical) Rossini - Overtures (Orchestre symphonique de Montreal, Charles Dutoit) - 1992, FLAC (image+.cue) lossless


 

[Цитировать]

Rossini - Overtures
Жанр: Classical
Страна-производитель диска: Germany
Год издания диска: 1992
Издатель (лейбл): Decca
Номер по каталогу: 467 427-2
Аудиокодек: FLAC
Тип рипа: image+.cue
Битрейт аудио: lossless
Продолжительность: 1:08:18
Источник: собственный рип
Наличие сканов в содержимом раздачи: да
Треклист:
1. La scala di seta - 6:08
2. Semiramide - 12:01
3. La gazza ladra - 9:56
4. Guillaume Tell - 11:29
5. Il barbiere di Siviglia - 7:37
6. L'italiana in Algeri - 8:10
7. Il Signor Bruschino - 4:40
8. La Cenerentola - 8:14
Исполнители:
Orchestre symphonique de Montréal; Charles Dutoit
Дополнительно:
Диск из серии Eloquence, создан с использованием технологии Ambient Surround Imaging (AMSI).

Лог создания рипа

Exact Audio Copy V1.0 beta 3 from 29. August 2011
EAC extraction logfile from 30. November 2014, 17:32
Orchestre symphonique de Montréal & Charles Dutoit / Rossini - Overtures
Used drive : PLEXTOR DVDR PX-612U Adapter: 2 ID: 0
Read mode : Secure
Utilize accurate stream : Yes
Defeat audio cache : Yes
Make use of C2 pointers : No
Read offset correction : 6
Overread into Lead-In and Lead-Out : No
Fill up missing offset samples with silence : Yes
Delete leading and trailing silent blocks : No
Null samples used in CRC calculations : Yes
Used interface : Native Win32 interface for Win NT & 2000
Used output format : User Defined Encoder
Selected bitrate : 128 kBit/s
Quality : High
Add ID3 tag : No
Command line compressor : C:\Program Files (x86)\Exact Audio Copy\Flac\flac.exe
Additional command line options : -V -8 -T "Date=%year%" -T "Genre=%genre%" %source%
TOC of the extracted CD
Track | Start | Length | Start sector | End sector
---------------------------------------------------------
1 | 0:00.00 | 6:08.20 | 0 | 27619
2 | 6:08.20 | 12:01.71 | 27620 | 81765
3 | 18:10.16 | 9:56.19 | 81766 | 126484
4 | 28:06.35 | 11:29.54 | 126485 | 178213
5 | 39:36.14 | 7:37.15 | 178214 | 212503
6 | 47:13.29 | 8:10.50 | 212504 | 249303
7 | 55:24.04 | 4:40.30 | 249304 | 270333
8 | 60:04.34 | 8:14.02 | 270334 | 307385
Range status and errors
Selected range
Filename D:\Rossini - Overtures.wav
Peak level 99.9 %
Extraction speed 5.0 X
Range quality 100.0 %
Test CRC DDCF583D
Copy CRC DDCF583D
Copy OK
No errors occurred
AccurateRip summary
Track 1 accurately ripped (confidence 5) [91246E7A] (AR v2)
Track 2 accurately ripped (confidence 5) [F80E2B1D] (AR v2)
Track 3 accurately ripped (confidence 5) [5442714A] (AR v2)
Track 4 accurately ripped (confidence 5) [3EFD6091] (AR v2)
Track 5 accurately ripped (confidence 5) [25C03C3F] (AR v2)
Track 6 accurately ripped (confidence 4) [5AAEDCE2] (AR v2)
Track 7 accurately ripped (confidence 5) [7E375849] (AR v2)
Track 8 accurately ripped (confidence 4) [29C29538] (AR v2)
All tracks accurately ripped
End of status report
==== Log checksum 5586EF4CF223736A17FBB1EB057222CC2600552C36639750247AC16600015E3C ====

Содержание индексной карты (.CUE)

REM GENRE Classical
REM DATE 1992
REM DISCID 72100208
REM COMMENT "ExactAudioCopy v1.0b3"
PERFORMER "Orchestre symphonique de Montréal & Charles Dutoit"
TITLE "Rossini - Overtures"
FILE "Rossini - Overtures.flac" WAVE
TRACK 01 AUDIO
TITLE "La scala di seta"
PERFORMER "Orchestre symphonique de Montréal & Charles Dutoit"
INDEX 01 00:00:00
TRACK 02 AUDIO
TITLE "Semiramide"
PERFORMER "Orchestre symphonique de Montréal & Charles Dutoit"
INDEX 01 06:08:20
TRACK 03 AUDIO
TITLE "La gazza ladra"
PERFORMER "Orchestre symphonique de Montréal & Charles Dutoit"
INDEX 01 18:10:16
TRACK 04 AUDIO
TITLE "Guillaume Tell"
PERFORMER "Orchestre symphonique de Montréal & Charles Dutoit"
INDEX 01 28:06:35
TRACK 05 AUDIO
TITLE "Il barbiere di Siviglia"
PERFORMER "Orchestre symphonique de Montréal & Charles Dutoit"
INDEX 01 39:36:14
TRACK 06 AUDIO
TITLE "L'italiana in Algeri"
PERFORMER "Orchestre symphonique de Montréal & Charles Dutoit"
INDEX 01 47:13:29
TRACK 07 AUDIO
TITLE "Il Signor Bruschino"
PERFORMER "Orchestre symphonique de Montréal & Charles Dutoit"
INDEX 01 55:24:04
TRACK 08 AUDIO
TITLE "La Cenerentola"
PERFORMER "Orchestre symphonique de Montréal & Charles Dutoit"
INDEX 01 60:04:34

Спектрограмма

Disc, back, matrix




Показать сообщения:    

Текущее время: 03-Дек 12:36

Часовой пояс: UTC + 3


Вы не можете начинать темы
Вы не можете отвечать на сообщения
Вы не можете редактировать свои сообщения
Вы не можете удалять свои сообщения
Вы не можете голосовать в опросах
Вы не можете прикреплять файлы к сообщениям
Вы не можете скачивать файлы