(Classical) Marcel Landowski - La Vieille Maison (Marc Soustrot, Orchestre Philharmonique Des Pays De Loire; Nantes Opera Chorus; Dubosc, Senechal, Lafont) - 1988, FLAC (image+.cue) los


Статистика раздачи [Обновить пиров]
Размер:  277 MB   |    Зарегистрирован:  8 месяцев 20 дней   |    Скачан:  0 раз

Полного источника не было: Никогда

Личеров:  3  [  0 KB/s  ]   Подробная статистика пиров
 
   
 
 
 

[Цитировать]

Marcel Landowski (1915-1999) - La Vieille Maison
Жанр: Classical
Год издания диска: 1988
Издатель (лейбл): Erato
Номер по каталогу:
Дата записи:
Аудиокодек: FLAC
Тип рипа: image+.cue
Битрейт аудио: lossless
Продолжительность: 01:14:26
Источник: скачано из сети
Наличие сканов в содержимом раздачи: да
Треклист:
Premier Acte
01. Ouverture (00:46)
02. Premier Tableau (01:13)
03. Deuxiиme Tableau (12:25)
04. Troisiиme Tableau (03:33)
05. Quatriиme Tableau (12:30)
06. Cinquiиme Tableau (12:08)
07. Sixiиme Tableau (01:34)
Deuxiиme Acte
08. Septiиme Tableau (06:24)
09. Huitiиme Tableau (08:55)
10. Neuviиme Tableau (03:03)
11. Dixiиme Tableau (08:53)
12. Onziиme Tableau (03:02)
Исполнители:
Catherine Dubosc,
Michel Sénéchal,
Jean-Philippe Lafont,
Renato Ercolani, Danilo Sanges, Christian Davesnes, Claude Genelle, Yohann Le Goff
Nantes Opera Chorus
Orchestre Philharmonique Des Pays De Loire
Marc Soustrot

LOG EAC

Exact Audio Copy V1.0 beta 1 from 15. November 2010
EAC extraction logfile from 16. December 2011, 0:36
Marcel Landowski (1915-1999) / La Vieille Maison (1988)
Used drive : TSSTcorpCDDVDW SH-S223C Adapter: 0 ID: 1
Read mode : Secure
Utilize accurate stream : Yes
Defeat audio cache : Yes
Make use of C2 pointers : No
Read offset correction : 697
Overread into Lead-In and Lead-Out : No
Fill up missing offset samples with silence : Yes
Delete leading and trailing silent blocks : No
Null samples used in CRC calculations : No
Used interface : Native Win32 interface for Win NT & 2000
Used output format : User Defined Encoder
Selected bitrate : 896 kBit/s
Quality : High
Add ID3 tag : No
Command line compressor : C:\Program Files (x86)\Exact Audio Copy\FLAC\FLAC.EXE
Additional command line options : -V -0 -T "artist=%a" -T "title=%t" -T "album=%g" -T "date=%y" -T "tracknumber=%n" -T "genre=%m" %s
TOC of the extracted CD
Track | Start | Length | Start sector | End sector
---------------------------------------------------------
1 | 0:00.00 | 0:46.65 | 0 | 3514
2 | 0:46.65 | 1:13.32 | 3515 | 9021
3 | 2:00.22 | 12:25.55 | 9022 | 64951
4 | 14:26.02 | 3:33.43 | 64952 | 80969
5 | 17:59.45 | 12:30.60 | 80970 | 137279
6 | 30:30.30 | 12:08.52 | 137280 | 191931
7 | 42:39.07 | 1:34.28 | 191932 | 199009
8 | 44:13.35 | 6:24.32 | 199010 | 227841
9 | 50:37.67 | 8:55.55 | 227842 | 268021
10 | 59:33.47 | 3:03.20 | 268022 | 281766
11 | 62:36.67 | 8:53.30 | 281767 | 321771
12 | 71:30.22 | 3:02.25 | 321772 | 335446
Range status and errors
Selected range
Filename F:\Musique\Landowski\La_Vieille_Maison\Marcel Landowski (1915-1999) - La Vieille Maison (1988).wav
Peak level 100.0 %
Extraction speed 0.6 X
Range quality 100.0 %
Test CRC 9502FE76
Copy CRC 9502FE76
Copy OK
No errors occurred
AccurateRip summary
Track 1 not present in database
Track 2 not present in database
Track 3 not present in database
Track 4 not present in database
Track 5 not present in database
Track 6 not present in database
Track 7 not present in database
Track 8 not present in database
Track 9 not present in database
Track 10 not present in database
Track 11 not present in database
Track 12 not present in database
None of the tracks are present in the AccurateRip database
End of status report
==== Log checksum FAE25BF8CF429F1FBF0FF4C6CF2CF43B6ADC836FE048E05BDAE6659896709B20 ====
Marcel Landowski - Piano Concerto No. 2 - Ondes Martenot Concerto - Trompette Concerto - 1978
Marcel Landowski - Le Fou - 1980
Marcel Landowski - Le Fantome de l'Opera - 1982
Marcel Landowski - Un Enfant Appele, La Prison - 1984
Marcel Landowski - La Vieille Maison - 1988
Marcel Landowski - Symphonies 1 - 4 - 1990
Marcel Landowski - Messe de l'Aurore - 4 Pieces pour Trompette et Orgue - 1990
mp3
[teatrix.ru].t19687.torrent 
Торрент: Зарегистрирован [ 2016-03-19 00:04 ] · 1C0AEFA1E67189A382BC0E9D326D50B910DC113E

Скачать .torrent

Скачать

12 KB

Статус: проверено
Скачан: 0 раз
Размер: 277 MB
terms.php



Быстрый ответ

Имя:

      
Для отправки сообщений необходимо включить JavaScript
Показать сообщения:    

Текущее время: 08-Дек 10:59

Часовой пояс: UTC + 3


Вы можете начинать темы
Вы можете отвечать на сообщения
Вы не можете редактировать свои сообщения
Вы не можете удалять свои сообщения
Вы не можете голосовать в опросах
Вы не можете прикреплять файлы к сообщениям
Вы можете скачивать файлы