(Classical, Romantic, Chamber Music) Bernhard Molique - String Quartets, Vol. 2 (Mannheimer Streichquartet) - 2009, FLAC (image+.cue) lossless


 

[Цитировать]

Bernhard Molique - String Quartets, Vol. 2 (Mannheimer Streichquartet)
Жанр: Classical, Romantic, Chamber Music
Страна-производитель диска: Germany
Год издания диска: 2009
Издатель (лейбл): Cpo
Номер по каталогу: 777276
Дата записи: 2006
Аудиокодек: FLAC
Тип рипа: image+.cue
Битрейт аудио: lossless
Продолжительность: 57:39
Источник: скачано с
сайт-источник/ник/другое: WEB
Наличие сканов в содержимом раздачи: да
Треклист:
Бернхард Молик (1802-1869)
1-4. String Quartet in E-Flat Major, Op. 18, No. 3 29:49
I. Allegro 10:58
II. Andante 09:35
III. Menuetto 03:51
IV. Presto 05:24
5-8. String Quartet in F Minor, Op. 28 27:41
I. Allegro 11:28
II. Andante 07:39
III. Scherzo 03:00
IV.Rondo 05:33
Исполнители:
Mannheimer Streichquartet:
Andreas Krecher (Violin), Shinkyung Kim (Violin), Niklas Schwarz (Viola), Armin Fromm (Cello)

Лог создания рипа

Exact Audio Copy V1.0 beta 3 from 29. August 2011
EAC extraction logfile from 27. April 2013, 17:56
Mannheim String Quartet / Molique - String Quartets Vol.2 - Manheimer Streichquartett
Used drive : TSSTcorpCDDVDW SH-222BB Adapter: 2 ID: 1
Read mode : Secure
Utilize accurate stream : Yes
Defeat audio cache : Yes
Make use of C2 pointers : No
Read offset correction : 6
Overread into Lead-In and Lead-Out : No
Fill up missing offset samples with silence : Yes
Delete leading and trailing silent blocks : No
Null samples used in CRC calculations : Yes
Used interface : Native Win32 interface for Win NT & 2000
Used output format : User Defined Encoder
Selected bitrate : 1024 kBit/s
Quality : High
Add ID3 tag : No
Command line compressor : C:\Program Files\Exact Audio Copy\Flac\flac.exe
Additional command line options : -8 -V -T "TITLE=%title%" -T "ARTIST=%artist%" -T "ALBUMARTIST=%albumartist%" -T "ALBUM=%albumtitle%" -T "DATE=%year%" -T "TRACKNUMBER=%tracknr%" -T "TRACKTOTAL=%numtracks%" -T "GENRE=%genre%" -T "COMMENT=%comment%" -T "PERFORMER=%albuminterpret%" -T "COMPOSER=%composer%" %source% -o %dest%
TOC of the extracted CD
Track | Start | Length | Start sector | End sector
---------------------------------------------------------
1 | 0:00.02 | 10:58.57 | 2 | 49408
2 | 10:58.59 | 9:35.35 | 49409 | 92568
3 | 20:34.19 | 3:51.04 | 92569 | 109897
4 | 24:25.23 | 5:30.19 | 109898 | 134666
5 | 29:55.42 | 11:29.01 | 134667 | 186342
6 | 41:24.43 | 7:39.41 | 186343 | 220808
7 | 49:04.09 | 3:00.01 | 220809 | 234309
8 | 52:04.10 | 5:33.26 | 234310 | 259310
Range status and errors
Selected range
Filename G:\Ripped general\[8900] Molique – String Quartets Vol.2 – Manheimer Streichquartett\Molique - String Quartets Vol.2 - Manheimer Streichquartett.wav
Peak level 99.5 %
Extraction speed 2.3 X
Range quality 99.9 %
Test CRC 8911A718
Copy CRC 8911A718
Copy OK
No errors occurred
AccurateRip summary
Track 1 not present in database
Track 2 not present in database
Track 3 not present in database
Track 4 not present in database
Track 5 not present in database
Track 6 not present in database
Track 7 not present in database
Track 8 not present in database
None of the tracks are present in the AccurateRip database
End of status report



Показать сообщения:    

Текущее время: 24-Янв 00:00

Часовой пояс: UTC + 3


Вы не можете начинать темы
Вы не можете отвечать на сообщения
Вы не можете редактировать свои сообщения
Вы не можете удалять свои сообщения
Вы не можете голосовать в опросах
Вы не можете прикреплять файлы к сообщениям
Вы не можете скачивать файлы