(Classical, Romantic, Chamber Music) Bernhard Molique - String Quartets, Vol. 3 (Mannheimer Streichquartet) - 2010, FLAC (image+.cue) lossless


 

[Цитировать]

Bernhard Molique - String Quartets, Vol. 3 (Mannheimer Streichquartet)
Жанр: Classical, Romantic, Chamber Music
Страна-производитель диска: Germany
Год издания диска: 2010
Издатель (лейбл): Cpo
Номер по каталогу: 7773362
Дата записи: 2007
Аудиокодек: FLAC
Тип рипа: image+.cue
Битрейт аудио: lossless
Продолжительность: 01:15:14
Источник: скачано с
сайт-источник/ник/другое: WEB
Наличие сканов в содержимом раздачи: да
Треклист:
Бернхард Молик (1802-1869)
1-4. String Quartet No. 1 in G major op. 16 34:17
I. Allegro 10:33
II. Menuetto 05:33
III. Andante non troppo 09:27
IV. Rondo 08:44
5-8. String Quartet No. 2 in C minor op. 17 40:39
I. Allegro 14:00
II. Menuetto 06:43
III. Andante 10:19
IV. Finale 09:37
Исполнители:
Mannheimer Streichquartet:
Andreas Krecher (Violin), Shinkyung Kim (Violin), Niklas Schwarz (Viola), Armin Fromm (Cello)

Лог создания рипа

Exact Audio Copy V1.0 beta 3 from 29. August 2011
EAC extraction logfile from 27. April 2013, 19:21
Mannheim String Quartet / Molique - String Quartets Vol.3 - Manheimer Streichquartett
Used drive : TSSTcorpCDDVDW SH-222BB Adapter: 2 ID: 1
Read mode : Secure
Utilize accurate stream : Yes
Defeat audio cache : Yes
Make use of C2 pointers : No
Read offset correction : 6
Overread into Lead-In and Lead-Out : No
Fill up missing offset samples with silence : Yes
Delete leading and trailing silent blocks : No
Null samples used in CRC calculations : Yes
Used interface : Native Win32 interface for Win NT & 2000
Used output format : User Defined Encoder
Selected bitrate : 1024 kBit/s
Quality : High
Add ID3 tag : No
Command line compressor : C:\Program Files\Exact Audio Copy\Flac\flac.exe
Additional command line options : -8 -V -T "TITLE=%title%" -T "ARTIST=%artist%" -T "ALBUMARTIST=%albumartist%" -T "ALBUM=%albumtitle%" -T "DATE=%year%" -T "TRACKNUMBER=%tracknr%" -T "TRACKTOTAL=%numtracks%" -T "GENRE=%genre%" -T "COMMENT=%comment%" -T "PERFORMER=%albuminterpret%" -T "COMPOSER=%composer%" %source% -o %dest%
TOC of the extracted CD
Track | Start | Length | Start sector | End sector
---------------------------------------------------------
1 | 0:00.00 | 10:34.12 | 0 | 47561
2 | 10:34.12 | 5:33.19 | 47562 | 72555
3 | 16:07.31 | 9:27.45 | 72556 | 115125
4 | 25:35.01 | 8:55.58 | 115126 | 155308
5 | 34:30.59 | 14:01.07 | 155309 | 218390
6 | 48:31.66 | 6:43.48 | 218391 | 248663
7 | 55:15.39 | 10:19.02 | 248664 | 295090
8 | 65:34.41 | 9:37.45 | 295091 | 338410
Range status and errors
Selected range
Filename G:\Ripped general\[8899] Molique – String Quartets Vol.3 – Manheimer Streichquartett\Molique - String Quartets Vol.3 - Manheimer Streichquartett.wav
Peak level 94.9 %
Extraction speed 7.9 X
Range quality 100.0 %
Test CRC 04B6CD00
Copy CRC 04B6CD00
Copy OK
No errors occurred
AccurateRip summary
Track 1 not present in database
Track 2 not present in database
Track 3 not present in database
Track 4 not present in database
Track 5 not present in database
Track 6 not present in database
Track 7 not present in database
Track 8 not present in database
None of the tracks are present in the AccurateRip database
End of status report



Показать сообщения:    

Текущее время: 11-Дек 07:11

Часовой пояс: UTC + 3


Вы не можете начинать темы
Вы не можете отвечать на сообщения
Вы не можете редактировать свои сообщения
Вы не можете удалять свои сообщения
Вы не можете голосовать в опросах
Вы не можете прикреплять файлы к сообщениям
Вы не можете скачивать файлы