The Finis Jhung Ballet Technique Level 1: Barrework for Beginners [2006, Обучающее видео по классическому танцу, DVDRip, ENG] (Видеоурок)


Статистика раздачи [Обновить пиров]
Размер:  1.09 GB   |    Зарегистрирован:  8 месяцев 20 дней   |    Скачан:  1 раз

Полного источника не было: 1 месяц 18 дней

Личеров:  3  [  0 KB/s  ]   Подробная статистика пиров
 
   
 
 
 

[Цитировать]

The Finis Jhung Ballet Technique - Level 1
Barrework for Beginners
-
Страна: США
Тематика: Обучающее видео по классическому танцу
Тип раздаваемого материала: Видеоурок
Продолжительность: 01:30:01
Год выпуска: 2006-Язык: Английский
Перевод: Отсутствует-Описание:
From head to toe, Finis Jhung gives you a fresh new view of the essential ideas of classical ballet that will transform your physique — and your psyche. The emphasis here is on learning ballet from the inside-out. Instead of merely assuming textbook positions and memorizing terminology, all the exercises in this class are designed to develop kinesthesia — the sense that detects bodily position, weight, or movement of the muscles, tendons, and joints. Learn to "see and feel" what you are doing. Learn the "why and how" that create the "what." Teachers have found that this class works wonders with younger students.
-Качество : DVDRip
Формат: AVI
Видео кодек: XviD
Аудио кодек: MP3
Видео: XviD, 640 x 480, 4/3, 1 597 Kbps, 23.976 fps, 0.217 b/px
Аудио: MPEG-1 Audio layer 3, 128 Kbps, CBR, 48.0 KHz, 2 ch.

DVD 5

Скриншоты

Меню - скриншот DVD
-


Дополнительно

EXERCISES
1. Number One
2. Turning out, demi plié in 1st position
3. Isometric grand pliés, relevé
4. Battement tendu en croix, 1st position
5. Port de bras
6. Battement tendu à la seconde, grand plié, relevé & balance, 1st position
7. Battement tendu devant & derrière, demi plié, 1st position
8. Working the foot, attitude à la seconde, relevé in plié, 1st position
9. Battement dégagé & attitude à la seconde, relevé & balance
10. Battement dégagé devant & derrière, stretches, 1st position
11. Battement tendu en croix, demi plié, relevé & balance, 5th position
12. Rond de jambe à terre
13. Dégagé en croix, demi plié, 5th position, balance cou-de-pied derrière
14. Fondu en croix, balance retiré derrère
15. Grand battement devant, port de bras
16. Grand battement derrière, tendu plie, relevé
17. Grand battement à la seconde, demi plie

Отчет MI DVD

Complete name                    : The Finis Jhung Ballet Technique Level 1 Barrework for Beginners\VIDEO_TS\VTS_01_1.VOB
Format                           : MPEG-PS
File size                        : 1 024 MiB
Duration                         : 21mn 43s
Overall bit rate                 : 6 591 Kbps
[br]
Video
ID                               : 224 (0xE0)
Format                           : MPEG Video
Format version                   : Version 2
Format profile                   : Main@Main
Format settings, BVOP            : Yes
Format settings, Matrix          : Default
Format settings, GOP             : M=3, N=15
Duration                         : 21mn 43s
Bit rate mode                    : Constant
Bit rate                         : 6 332 Kbps
Nominal bit rate                 : 6 006 Kbps
Width                            : 720 pixels
Height                           : 480 pixels
Display aspect ratio             : 4:3
Frame rate                       : 29.970 fps
Standard                         : NTSC
Color space                      : YUV
Chroma subsampling               : 4:2:0
Bit depth                        : 8 bits
Scan type                        : Interlaced
Scan order                       : Top Field First
Bits/(Pixel*Frame)               : 0.611
Stream size                      : 984 MiB (96%)
[br]
Audio
ID                               : 128 (0x80)
Format                           : AC-3
Format/Info                      : Audio Coding 3
Mode extension                   : CM (complete main)
Duration                         : 21mn 43s
Bit rate mode                    : Constant
Bit rate                         : 128 Kbps
Channel(s)                       : 2 channels
Channel positions                : Front: L R
Sampling rate                    : 48.0 KHz
Bit depth                        : 16 bits
Video delay                      : -67ms
Stream size                      : 19.9 MiB (2%)
[br]
Menu

Для проверяющего модератора

Качество : DVDRip
Формат: AVI
Видео кодек: XviD
Аудио кодек: MP3
Видео: 720x480 (1.50:1), 25 fps, XviD build 50 ~941 kbps avg, 0.11 bit/pixel
Аудио: 44.100 kHz, MPEG Layer 3, 2 ch, ~128.00 kbps avg
Размер: 688 MB | Зарегистрирован: 9 месяцев | .torrent скачан: 263 раза

Скриншоты



[teatrix.ru].t19694.torrent 
Торрент: Зарегистрирован [ 2016-03-19 00:06 ] · DE24AED0E588C7D915AA5D094BC80AD179769E8E

Скачать .torrent

Скачать

11 KB

Статус: проверено
Скачан: 1 раз
Размер: 1.09 GB
terms.php



Быстрый ответ

Имя:

      
Для отправки сообщений необходимо включить JavaScript
Показать сообщения:    

Текущее время: 08-Дек 21:08

Часовой пояс: UTC + 3


Вы можете начинать темы
Вы можете отвечать на сообщения
Вы не можете редактировать свои сообщения
Вы не можете удалять свои сообщения
Вы не можете голосовать в опросах
Вы не можете прикреплять файлы к сообщениям
Вы можете скачивать файлы