(Classical/Baroque)Bach • Telemann • Purcell • Lully • Rameau • Corelli • Baroque Passion • Auriacombe • Leroy • Ledger • Menuhin • Taurignan etc - 1992, FLAC (tracks+.cue) lossless


 

[Цитировать]

Baroque Passion Жанр: Classical/Baroque
Страна-производитель диска: France
Год издания диска: 1992
Издатель (лейбл): EMI
Номер по каталогу: 7 67425 2
Дата записи: 1960-1984
Аудиокодек: FLAC
Тип рипа: tracks+.cue
Битрейт аудио: lossless
Источник: скачано с
Наличие сканов в содержимом раздачи: нет

Треклист & Исполнители•Disc: 1•

1. Marc-Antoine Charpentier - Te Deum: Prelude
Philip Ledger/ Academy of St Martin in the Fields2. Jean-Baptiste Lully - Les folies d'Espagne
Michel Piguet/ Michel Piguet Oboe Ensemble
3. Michel Richard Delalande - Symphonies pour les soupers du Roi, Caprice de Villers-Cotterets (extracts)
Jean-Pierre Wallez/ Thierry Caens (Trumpet), Bernard Soustrot (Trumpet), Guy Touvron (Trumpet), Jean-Paul Leroy (Trumpet)
4. Jean-Philippe Rameau Musette et tambourin en rondeau (extract of 'Fetes d'Hebe')
Raymond Leppard/ English Chamber Orchestra
5. Christoph W. Gluck Dance Of The Spirits (extract of 'Orphee et Eurydice')
Sir Neville Marriner/ Academy of St. Martin in the Fields
6. Tomaso Albinoni Adagio Pour Strings And Organ
Xavier Darasse (Organ)
7. Johann Pachelbel Canon
8. Arcangelo Corelli Allegro (extract of Concerto pour la nuit de Noel)
Antonio Vivaldi
9. Concerto For 2 Trumpets: Allegro
10. Concerto For 2 Trumpets: Largo
11. Concerto For 2 Trumpets: Allegro
Albert Calvayrac (Trumpet), André Bernes (Trumpet)
12. Concerto For Mandolin: Allegro
13. Concerto For Mandolin: Largo
14. Concerto For Mandolin: Allegro
André Saint-Clivier (Mandolin)
15. Concerto For Violin And Strings 'Le Printemps': Allegro
16. Concerto For Violin And Strings 'Le Printemps': Largo e pianissimo
17. Concerto For Violin And Strings 'Le Printemps': Allegro (danza pastorale)
Georges Armand (Violin)
Alessandro Marcello
18. Concerto for Oboe and Strings: Allegro
19. Concerto for Oboe and Strings: Adagio
20. Concerto for Oboe and Strings: Presto
Maurice Bourgue (Oboe)
6-20: Louis Auriacombe/ Toulouse Chamber Orchestra
21. Luigi Boccherini Menuett (extract of Quilntette, Op. 13, No. 5)
Sir Neville Marriner/ Academy of St. Martin in the Fields

•Disc: 2•

Henry Purcell
1. King Arthur Suite: Trumpet Tune - Air - Symphony - Hornpipe - Passacaglia
2. Abdelazer: Rondo
Yehudi Menuhin/ Bath Festival OrchestraGeorge Frideric Handel
3. The Messiah: Pastoral Symphony
Sir Charles Mackerras/ English Chamber Orchestra
4. Water Music: Hornpipe
Yehudi Menuhin/ Bath Festival Orchestra
5. Xerxes: Largo
Sir Neville Marriner/ Academy of St. Martin in the Fields
Johann Sebastian Bach
6. Suite No. 2 In C Minor, BWV 1067: Badinerie
Elaine Shaffer (Flute)
7. Suite No. 3 in G Major, BWV 1068: Air
6-7: Yehudi Menuhin/ Bath Festival Orchestra
8. Jesu, Joy of Man's Desiring: Jesu, Joy Of Man's Desiring Choral de la Cantate BWV147
Sir Neville Marriner/ Academy of St. Martin in the Fields
9. Sonata For Flute And Harpsichord, BWV 1031: Sicilienne
Michel Debost (Flute), Lionel Rogg (Harpsichord)
10. Concerto For 2 Violins And Strings, BWV 1043: Vivace
11. Concerto For 2 Violins And Strings, BWV 1043: Largo ma non tanto
12. Concerto For 2 Violins And Strings, BWV 1043: Allegro
Performer: Christian Ferras (Violin), Yehudi Menuhin (Violin)
Conductor: Yehudi Menuhin
Orchestra/Ensemble: Bath Festival Orchestra

Georg Philipp Telemann
13. Suite For Flute & Strings: Ouverture
14. Suite For Flute & Strings: Les Plaisirs
15. Suite For Flute & Strings: Air a l'italienne
Performer: Elaine Shaffer (Flute)
Conductor: Yehudi Menuhin
Orchestra/Ensemble: Philharmonia Orchestra

16. Concerto For Trumpet, 2 Oboes, And Strings: Sicilienne
17. Concerto For Trumpet, 2 Oboes, And Strings: Vivace
Performer: Pierre Pierlot (Oboe), Jean-Pierre Taurignan (Oboe), Albert Calvayrac (Trumpet)
Conductor: Louis Auriacombe
Orchestra/Ensemble: Toulouse Chamber Orchestra

EACDisc 1

Exact Audio Copy V1.0 beta 3 from 29. August 2011
EAC extraction logfile from 3. January 2013, 0:03
Various Artists / Baroque Collection - Passion - Disc 1
Used drive : PLDS DVD-RW DS8A8SH Adapter: 0 ID: 1
Read mode : Secure
Utilize accurate stream : Yes
Defeat audio cache : Yes
Make use of C2 pointers : No
Read offset correction : 6
Overread into Lead-In and Lead-Out : No
Fill up missing offset samples with silence : Yes
Delete leading and trailing silent blocks : No
Null samples used in CRC calculations : Yes
Used interface : Native Win32 interface for Win NT & 2000
Gap handling : Appended to previous track
Used output format : User Defined Encoder
Selected bitrate : 896 kBit/s
Quality : High
Add ID3 tag : No
Command line compressor : C:\Program Files (x86)\Exact Audio Copy\Flac\flac.exe
Additional command line options : -8 -V -T "ARTIST=%artist%" -T "TITLE=%title%" -T "ALBUM=%albumtitle%" -T "DATE=%year%" -T "TRACKNUMBER=%tracknr%" -T "GENRE=%genre%" -T "PERFORMER=%albuminterpret%" -T "COMPOSER=%composer%" %haslyrics%--tag-from-file=LYRICS="%lyricsfile%"%haslyrics% -T "ALBUMARTIST=%albumartist%" -T "DISCNUMBER=%cdnumber%" -T "TOTALDISCS=%totalcds%" -T "TOTALTRACKS=%numtracks%" -T "COMMENT=%comment%" %source% -o %dest%
TOC of the extracted CD
Track | Start | Length | Start sector | End sector
---------------------------------------------------------
1 | 0:00.33 | 1:49.00 | 33 | 8207
2 | 1:49.33 | 4:06.62 | 8208 | 26719
3 | 5:56.20 | 4:32.28 | 26720 | 47147
4 | 10:28.48 | 3:03.02 | 47148 | 60874
5 | 13:31.50 | 6:17.65 | 60875 | 89214
6 | 19:49.40 | 7:41.43 | 89215 | 123832
7 | 27:31.08 | 5:01.37 | 123833 | 146444
8 | 32:32.45 | 2:47.68 | 146445 | 159037
9 | 35:20.38 | 2:53.62 | 159038 | 172074
10 | 38:14.25 | 1:13.25 | 172075 | 177574
11 | 39:27.50 | 2:59.38 | 177575 | 191037
12 | 42:27.13 | 2:57.40 | 191038 | 204352
13 | 45:24.53 | 1:47.27 | 204353 | 212404
14 | 47:12.05 | 2:28.70 | 212405 | 223574
15 | 49:41.00 | 4:03.00 | 223575 | 241799
16 | 53:44.00 | 3:25.53 | 241800 | 257227
17 | 57:09.53 | 4:35.37 | 257228 | 277889
18 | 61:45.15 | 3:20.40 | 277890 | 292929
19 | 65:05.55 | 4:32.38 | 292930 | 313367
20 | 69:38.18 | 3:43.15 | 313368 | 330107
21 | 73:21.33 | 3:52.55 | 330108 | 347562
Track 1
Filename D:\r\Baroque Passion (1992) [FLAC] {EMI 67425}\Disc 1\01 - Charpentier Te Deum.wav
Pre-gap length 0:00:02.44
Peak level 72.6 %
Extraction speed 1.0 X
Track quality 100.0 %
Test CRC 1A4BCEF7
Copy CRC 1A4BCEF7
Cannot be verified as accurate (confidence 2) [EBA1ECA6], AccurateRip returned [1CFC061B] (AR v2)
Copy OK
Track 2
Filename D:\r\Baroque Passion (1992) [FLAC] {EMI 67425}\Disc 1\02 - Lully Les Folies d'Espagne.wav
Pre-gap length 0:00:03.30
Peak level 48.8 %
Extraction speed 1.3 X
Track quality 100.0 %
Test CRC 1F82D7BC
Copy CRC 1F82D7BC
Cannot be verified as accurate (confidence 2) [65FDFED8], AccurateRip returned [C69D1279] (AR v2)
Copy OK
Track 3
Filename D:\r\Baroque Passion (1992) [FLAC] {EMI 67425}\Disc 1\03 - Delalande Symphonies pour les soupers du Roi.wav
Pre-gap length 0:00:02.40
Peak level 86.3 %
Extraction speed 1.5 X
Track quality 100.0 %
Test CRC 7939C224
Copy CRC 7939C224
Cannot be verified as accurate (confidence 2) [61FE4893], AccurateRip returned [B76FB399] (AR v2)
Copy OK
Track 4
Filename D:\r\Baroque Passion (1992) [FLAC] {EMI 67425}\Disc 1\04 - Rameau Musette et tambourin.wav
Pre-gap length 0:00:03.70
Peak level 47.4 %
Extraction speed 1.5 X
Track quality 100.0 %
Test CRC 0AEB8CD4
Copy CRC 0AEB8CD4
Cannot be verified as accurate (confidence 2) [22F17789], AccurateRip returned [78BCC39D] (AR v2)
Copy OK
Track 5
Filename D:\r\Baroque Passion (1992) [FLAC] {EMI 67425}\Disc 1\05 - Gluck Dance of the Spirits.wav
Pre-gap length 0:00:03.96
Peak level 31.2 %
Extraction speed 1.7 X
Track quality 100.0 %
Test CRC FD65F9B3
Copy CRC FD65F9B3
Cannot be verified as accurate (confidence 2) [501C6C20], AccurateRip returned [FA99A2EE] (AR v2)
Copy OK
Track 6
Filename D:\r\Baroque Passion (1992) [FLAC] {EMI 67425}\Disc 1\06 - Albinoni Adagio.wav
Pre-gap length 0:00:02.33
Peak level 68.4 %
Extraction speed 1.9 X
Track quality 100.0 %
Test CRC D7514C4B
Copy CRC D7514C4B
Cannot be verified as accurate (confidence 2) [EDDADAB2], AccurateRip returned [4B303FB2] (AR v2)
Copy OK
Track 7
Filename D:\r\Baroque Passion (1992) [FLAC] {EMI 67425}\Disc 1\07 - Pachelbel Canon.wav
Pre-gap length 0:00:06.24
Peak level 89.7 %
Extraction speed 2.0 X
Track quality 100.0 %
Test CRC 368F57CF
Copy CRC 368F57CF
Cannot be verified as accurate (confidence 2) [FF13D9B2], AccurateRip returned [94CCF7B8] (AR v2)
Copy OK
Track 8
Filename D:\r\Baroque Passion (1992) [FLAC] {EMI 67425}\Disc 1\08 - Corelli Allegro.wav
Pre-gap length 0:00:02.96
Peak level 82.4 %
Extraction speed 1.4 X
Track quality 99.8 %
Test CRC 0D92AF28
Copy CRC 0D92AF28
Cannot be verified as accurate (confidence 2) [28F9BEE2], AccurateRip returned [B65BC646] (AR v2)
Copy OK
Track 9
Filename D:\r\Baroque Passion (1992) [FLAC] {EMI 67425}\Disc 1\09 - Vivaldi Concert for 2 Trumpets (1).wav
Pre-gap length 0:00:02.70
Peak level 57.4 %
Extraction speed 1.9 X
Track quality 100.0 %
Test CRC 30D3ED3F
Copy CRC 30D3ED3F
Cannot be verified as accurate (confidence 2) [A9E56213], AccurateRip returned [F0F06007] (AR v2)
Copy OK
Track 10
Filename D:\r\Baroque Passion (1992) [FLAC] {EMI 67425}\Disc 1\10 - Vivaldi Concert for 2 Trumpets (2).wav
Pre-gap length 0:00:00.73
Peak level 26.6 %
Extraction speed 1.6 X
Track quality 100.0 %
Test CRC 770CB4D9
Copy CRC 770CB4D9
Cannot be verified as accurate (confidence 2) [8AE06E64], AccurateRip returned [47632F49] (AR v2)
Copy OK
Track 11
Filename D:\r\Baroque Passion (1992) [FLAC] {EMI 67425}\Disc 1\11 - Vivaldi Concert for 2 Trumpets (3).wav
Pre-gap length 0:00:01.49
Peak level 81.5 %
Extraction speed 2.0 X
Track quality 100.0 %
Test CRC FB126F0D
Copy CRC FB126F0D
Cannot be verified as accurate (confidence 2) [677AA721], AccurateRip returned [20F08B93] (AR v2)
Copy OK
Track 12
Filename D:\r\Baroque Passion (1992) [FLAC] {EMI 67425}\Disc 1\12 - Vivaldi Mandolin concerto (1).wav
Pre-gap length 0:00:03.30
Peak level 58.5 %
Extraction speed 2.1 X
Track quality 100.0 %
Test CRC 92E3DBD9
Copy CRC 92E3DBD9
Cannot be verified as accurate (confidence 2) [BB6CC6EF], AccurateRip returned [F2012B73] (AR v2)
Copy OK
Track 13
Filename D:\r\Baroque Passion (1992) [FLAC] {EMI 67425}\Disc 1\13 - Vivaldi Mandolin concerto (2).wav
Pre-gap length 0:00:01.40
Peak level 11.2 %
Extraction speed 1.9 X
Track quality 100.0 %
Test CRC 366544E3
Copy CRC 366544E3
Cannot be verified as accurate (confidence 2) [65954B9E], AccurateRip returned [C9187E7F] (AR v2)
Copy OK
Track 14
Filename D:\r\Baroque Passion (1992) [FLAC] {EMI 67425}\Disc 1\14 - Vivaldi Mandolin concerto (3).wav
Pre-gap length 0:00:02.62
Peak level 62.7 %
Extraction speed 2.1 X
Track quality 100.0 %
Test CRC F19F9B88
Copy CRC F19F9B88
Cannot be verified as accurate (confidence 2) [A9FF6ADD], AccurateRip returned [D37ED0A4] (AR v2)
Copy OK
Track 15
Filename D:\r\Baroque Passion (1992) [FLAC] {EMI 67425}\Disc 1\15 - Vivaldi Concerto Le Printemps (1).wav
Pre-gap length 0:00:03.93
Peak level 74.3 %
Extraction speed 2.1 X
Track quality 99.9 %
Test CRC 27E072AE
Copy CRC 27E072AE
Track not present in AccurateRip database
Copy OK
Track 16
Filename D:\r\Baroque Passion (1992) [FLAC] {EMI 67425}\Disc 1\16 - Vivaldi Concerto Le Printemps (2).wav
Pre-gap length 0:00:03.33
Peak level 14.7 %
Extraction speed 2.3 X
Track quality 100.0 %
Test CRC AB4D6773
Copy CRC AB4D6773
Track not present in AccurateRip database
Copy OK
Track 17
Filename D:\r\Baroque Passion (1992) [FLAC] {EMI 67425}\Disc 1\17 - Vivaldi Concerto Le Printemps (3).wav
Pre-gap length 0:00:02.90
Peak level 55.2 %
Extraction speed 2.5 X
Track quality 100.0 %
Test CRC 6445E744
Copy CRC 6445E744
Track not present in AccurateRip database
Copy OK
Track 18
Filename D:\r\Baroque Passion (1992) [FLAC] {EMI 67425}\Disc 1\18 - Marcello Concerto for oboe (1).wav
Pre-gap length 0:00:03.20
Peak level 49.5 %
Extraction speed 2.1 X
Track quality 99.9 %
Test CRC F30B4C6C
Copy CRC F30B4C6C
Cannot be verified as accurate (confidence 2) [8A28C9DA], AccurateRip returned [3B790504] (AR v2)
Copy OK
Track 19
Filename D:\r\Baroque Passion (1992) [FLAC] {EMI 67425}\Disc 1\19 - Marcello Concerto for oboe (2).wav
Pre-gap length 0:00:03.62
Peak level 32.8 %
Extraction speed 2.6 X
Track quality 100.0 %
Test CRC 8F41E980
Copy CRC 8F41E980
Cannot be verified as accurate (confidence 2) [4956CC81], AccurateRip returned [D9E19056] (AR v2)
Copy OK
Track 20
Filename D:\r\Baroque Passion (1992) [FLAC] {EMI 67425}\Disc 1\20 - Marcello Concerto for oboe (3).wav
Pre-gap length 0:00:03.64
Peak level 81.0 %
Extraction speed 2.0 X
Track quality 99.9 %
Test CRC 800F09DF
Copy CRC 800F09DF
Cannot be verified as accurate (confidence 2) [6296CEE9], AccurateRip returned [E616FCBB] (AR v2)
Copy OK
Track 21
Filename D:\r\Baroque Passion (1992) [FLAC] {EMI 67425}\Disc 1\21 - Boccherini Menuet.wav
Pre-gap length 0:00:02.84
Peak level 53.3 %
Extraction speed 2.3 X
Track quality 99.9 %
Test CRC DD04D9EB
Copy CRC DD04D9EB
Cannot be verified as accurate (confidence 2) [92CD4575], AccurateRip returned [DC1F6CD9] (AR v2)
Copy OK
18 track(s) could not be verified as accurate
3 track(s) not present in the AccurateRip database
No tracks could be verified as accurate
You may have a different pressing from the one(s) in the database
No errors occurred
End of status report
==== Log checksum 3579CB151C439ADDED7FC8336BDBB6920BC3B58F81450EBC7AFA9FD299DF842F ====

Disc 2

Exact Audio Copy V1.0 beta 3 from 29. August 2011
EAC extraction logfile from 30. December 2012, 21:59
Various Artists / Baroque Collection - Passion - Disc 2
Used drive : PLDS DVD-RW DS8A8SH Adapter: 0 ID: 1
Read mode : Secure
Utilize accurate stream : Yes
Defeat audio cache : Yes
Make use of C2 pointers : No
Read offset correction : 6
Overread into Lead-In and Lead-Out : No
Fill up missing offset samples with silence : Yes
Delete leading and trailing silent blocks : No
Null samples used in CRC calculations : Yes
Used interface : Native Win32 interface for Win NT & 2000
Gap handling : Appended to previous track
Used output format : User Defined Encoder
Selected bitrate : 896 kBit/s
Quality : High
Add ID3 tag : No
Command line compressor : C:\Program Files (x86)\Exact Audio Copy\Flac\flac.exe
Additional command line options : -8 -V -T "ARTIST=%artist%" -T "TITLE=%title%" -T "ALBUM=%albumtitle%" -T "DATE=%year%" -T "TRACKNUMBER=%tracknr%" -T "GENRE=%genre%" -T "PERFORMER=%albuminterpret%" -T "COMPOSER=%composer%" %haslyrics%--tag-from-file=LYRICS="%lyricsfile%"%haslyrics% -T "ALBUMARTIST=%albumartist%" -T "DISCNUMBER=%cdnumber%" -T "TOTALDISCS=%totalcds%" -T "TOTALTRACKS=%numtracks%" -T "COMMENT=%comment%" %source% -o %dest%
TOC of the extracted CD
Track | Start | Length | Start sector | End sector
---------------------------------------------------------
1 | 0:00.33 | 9:23.07 | 33 | 42264
2 | 9:23.40 | 1:17.10 | 42265 | 48049
3 | 10:40.50 | 2:44.40 | 48050 | 60389
4 | 13:25.15 | 2:51.63 | 60390 | 73277
5 | 16:17.03 | 5:14.00 | 73278 | 96827
6 | 21:31.03 | 1:30.05 | 96828 | 103582
7 | 23:01.08 | 4:23.57 | 103583 | 123364
8 | 27:24.65 | 2:49.50 | 123365 | 136089
9 | 30:14.40 | 2:23.23 | 136090 | 146837
10 | 32:37.63 | 4:14.22 | 146838 | 165909
11 | 36:52.10 | 7:44.30 | 165910 | 200739
12 | 44:36.40 | 5:28.28 | 200740 | 225367
13 | 50:04.68 | 8:19.12 | 225368 | 262804
14 | 58:24.05 | 3:25.43 | 262805 | 278222
15 | 61:49.48 | 4:15.37 | 278223 | 297384
16 | 66:05.10 | 3:17.43 | 297385 | 312202
17 | 69:22.53 | 4:44.15 | 312203 | 333517
Track 1
Filename D:\r\Baroque Passion (1992) [FLAC] {EMI 67425}\Disc 2\01 - Purcell King Arthur Suite.wav
Pre-gap length 0:00:02.44
Peak level 70.1 %
Extraction speed 1.4 X
Track quality 99.9 %
Test CRC 5143DFF9
Copy CRC 5143DFF9
Cannot be verified as accurate (confidence 2) [7A96E5F9], AccurateRip returned [E046563C] (AR v2)
Copy OK
Track 2
Filename D:\r\Baroque Passion (1992) [FLAC] {EMI 67425}\Disc 2\02 - Purcell Rondo.wav
Pre-gap length 0:00:03.42
Peak level 64.1 %
Extraction speed 1.1 X
Track quality 100.0 %
Test CRC A2C602DB
Copy CRC A2C602DB
Cannot be verified as accurate (confidence 2) [8C1B81AA], AccurateRip returned [DD5C3B30] (AR v2)
Copy OK
Track 3
Filename D:\r\Baroque Passion (1992) [FLAC] {EMI 67425}\Disc 2\03 - Handel Pastoral Symphony (The Messiah).wav
Pre-gap length 0:00:04.26
Peak level 51.4 %
Extraction speed 1.4 X
Track quality 100.0 %
Test CRC C6FFD926
Copy CRC C6FFD926
Cannot be verified as accurate (confidence 2) [9FA2F3E1], AccurateRip returned [57922230] (AR v2)
Copy OK
Track 4
Filename D:\r\Baroque Passion (1992) [FLAC] {EMI 67425}\Disc 2\04 - Handel Hornpipe (Water Music).wav
Pre-gap length 0:00:05.02
Peak level 77.4 %
Extraction speed 1.5 X
Track quality 100.0 %
Test CRC 83D94D54
Copy CRC 83D94D54
Cannot be verified as accurate (confidence 2) [03F487A0], AccurateRip returned [EE1189BE] (AR v2)
Copy OK
Track 5
Filename D:\r\Baroque Passion (1992) [FLAC] {EMI 67425}\Disc 2\05 - Handel Largo (Xerxes).wav
Pre-gap length 0:00:03.73
Peak level 67.2 %
Extraction speed 1.7 X
Track quality 100.0 %
Test CRC A7EF4174
Copy CRC A7EF4174
Cannot be verified as accurate (confidence 2) [914C979C], AccurateRip returned [77D774E7] (AR v2)
Copy OK
Track 6
Filename D:\r\Baroque Passion (1992) [FLAC] {EMI 67425}\Disc 2\06 - Bach Badinerie (Suite n 2).wav
Pre-gap length 0:00:05.13
Peak level 71.4 %
Extraction speed 1.4 X
Track quality 100.0 %
Test CRC 579D6DC7
Copy CRC 579D6DC7
Cannot be verified as accurate (confidence 2) [75A04260], AccurateRip returned [674BC884] (AR v2)
Copy OK
Track 7
Filename D:\r\Baroque Passion (1992) [FLAC] {EMI 67425}\Disc 2\07 - Bach Air (Suite n 3).wav
Pre-gap length 0:00:04.33
Peak level 65.3 %
Extraction speed 1.8 X
Track quality 100.0 %
Test CRC 8C23C28E
Copy CRC 8C23C28E
Cannot be verified as accurate (confidence 2) [4127F5A0], AccurateRip returned [E5726017] (AR v2)
Copy OK
Track 8
Filename D:\r\Baroque Passion (1992) [FLAC] {EMI 67425}\Disc 2\08 - Bach Jesu, joy of man's desiring.wav
Pre-gap length 0:00:04.53
Peak level 45.9 %
Extraction speed 1.5 X
Track quality 99.9 %
Test CRC B0F12C30
Copy CRC B0F12C30
Cannot be verified as accurate (confidence 2) [CBEED6EC], AccurateRip returned [7ED3AF94] (AR v2)
Copy OK
Track 9
Filename D:\r\Baroque Passion (1992) [FLAC] {EMI 67425}\Disc 2\09 - Bach Sicilienne.wav
Pre-gap length 0:00:04.29
Peak level 45.9 %
Extraction speed 1.8 X
Track quality 100.0 %
Test CRC 80AB3E6D
Copy CRC 80AB3E6D
Cannot be verified as accurate (confidence 2) [C4978F7B], AccurateRip returned [D84B7F8F] (AR v2)
Copy OK
Track 10
Filename D:\r\Baroque Passion (1992) [FLAC] {EMI 67425}\Disc 2\10 - Bach Concerto for 2 violins I.wav
Pre-gap length 0:00:04.13
Peak level 70.1 %
Extraction speed 1.8 X
Track quality 99.9 %
Test CRC C02E5DC5
Copy CRC C02E5DC5
Cannot be verified as accurate (confidence 2) [1604E220], AccurateRip returned [83F42AD8] (AR v2)
Copy OK
Track 11
Filename D:\r\Baroque Passion (1992) [FLAC] {EMI 67425}\Disc 2\11 - Bach Concerto for 2 violins II.wav
Pre-gap length 0:00:03.09
Peak level 29.5 %
Extraction speed 2.3 X
Track quality 100.0 %
Test CRC 05782DEB
Copy CRC 05782DEB
Cannot be verified as accurate (confidence 2) [5CE60B40], AccurateRip returned [2B638845] (AR v2)
Copy OK
Track 12
Filename D:\r\Baroque Passion (1992) [FLAC] {EMI 67425}\Disc 2\12 - Bach Concerto for 2 violins III.wav
Pre-gap length 0:00:05.96
Peak level 71.2 %
Extraction speed 2.3 X
Track quality 100.0 %
Test CRC 044D0FBF
Copy CRC 044D0FBF
Cannot be verified as accurate (confidence 2) [8861C054], AccurateRip returned [DA9F5A26] (AR v2)
Copy OK
Track 13
Filename D:\r\Baroque Passion (1992) [FLAC] {EMI 67425}\Disc 2\13 - Teleman Suite for flute and strings I.wav
Pre-gap length 0:00:04.84
Peak level 68.3 %
Extraction speed 2.5 X
Track quality 100.0 %
Test CRC A03AAD21
Copy CRC A03AAD21
Cannot be verified as accurate (confidence 2) [18B5E8BC], AccurateRip returned [2FE77383] (AR v2)
Copy OK
Track 14
Filename D:\r\Baroque Passion (1992) [FLAC] {EMI 67425}\Disc 2\14 - Teleman Suite for flute and strings II.wav
Peak level 52.0 %
Extraction speed 2.4 X
Track quality 100.0 %
Test CRC 7EBEEF65
Copy CRC 7EBEEF65
Cannot be verified as accurate (confidence 2) [0E670868], AccurateRip returned [2B52B387] (AR v2)
Copy OK
Track 15
Filename D:\r\Baroque Passion (1992) [FLAC] {EMI 67425}\Disc 2\15 - Teleman Suite for flute and strings III.wav
Pre-gap length 0:00:00.90
Peak level 48.7 %
Extraction speed 2.6 X
Track quality 100.0 %
Test CRC 65C0655E
Copy CRC 65C0655E
Cannot be verified as accurate (confidence 2) [87B6AD96], AccurateRip returned [B1F73208] (AR v2)
Copy OK
Track 16
Filename D:\r\Baroque Passion (1992) [FLAC] {EMI 67425}\Disc 2\16 - Teleman Trumpet concerto I.wav
Pre-gap length 0:00:04.16
Peak level 21.9 %
Extraction speed 2.5 X
Track quality 100.0 %
Test CRC 97D6F5CD
Copy CRC 97D6F5CD
Cannot be verified as accurate (confidence 2) [275151A1], AccurateRip returned [3C60FA20] (AR v2)
Copy OK
Track 17
Filename D:\r\Baroque Passion (1992) [FLAC] {EMI 67425}\Disc 2\17 - Teleman Trumpet concerto II.wav
Pre-gap length 0:00:04.84
Peak level 74.8 %
Extraction speed 2.4 X
Track quality 99.9 %
Test CRC A5CC6047
Copy CRC A5CC6047
Cannot be verified as accurate (confidence 2) [A6E7E488], AccurateRip returned [D6264006] (AR v2)
Copy OK
No tracks could be verified as accurate
You may have a different pressing from the one(s) in the database
No errors occurred
End of status report
==== Log checksum D6701D48CDB26F0E8E7F40D4F2F566A6DC3DB4A2EB1FB68E457F35E13FC024B2 ====

Содержание индексной карты (.CUE)Disc 1

REM GENRE Classical
REM DATE 1992
REM DISCID 27121A15
REM COMMENT "ExactAudioCopy v1.0b3"
PERFORMER "Various Artists"
TITLE "Baroque Collection - Passion - Disc 1"
FILE "01 - Charpentier Te Deum.wav" WAVE
TRACK 01 AUDIO
TITLE "Te Deum"
PERFORMER "Charpentier"
PREGAP 00:00:33
INDEX 01 00:00:00
TRACK 02 AUDIO
TITLE "Les Folies d'Espagne"
PERFORMER "Lully"
INDEX 00 01:45:52
FILE "02 - Lully Les Folies d'Espagne.wav" WAVE
INDEX 01 00:00:00
TRACK 03 AUDIO
TITLE "Symphonies pour les soupers du Roi"
PERFORMER "Delalande"
INDEX 00 04:04:32
FILE "03 - Delalande Symphonies pour les soupers du Roi.wav" WAVE
INDEX 01 00:00:00
TRACK 04 AUDIO
TITLE "Musette et tambourin"
PERFORMER "Rameau"
INDEX 00 04:28:50
FILE "04 - Rameau Musette et tambourin.wav" WAVE
INDEX 01 00:00:00
TRACK 05 AUDIO
TITLE "Dance of the Spirits"
PERFORMER "Gluck"
INDEX 00 02:59:05
FILE "05 - Gluck Dance of the Spirits.wav" WAVE
INDEX 01 00:00:00
TRACK 06 AUDIO
TITLE "Adagio"
PERFORMER "Albinoni"
INDEX 00 06:15:40
FILE "06 - Albinoni Adagio.wav" WAVE
INDEX 01 00:00:00
TRACK 07 AUDIO
TITLE "Canon"
PERFORMER "Pachelbel"
INDEX 00 07:35:25
FILE "07 - Pachelbel Canon.wav" WAVE
INDEX 01 00:00:00
TRACK 08 AUDIO
TITLE "Allegro"
PERFORMER "Corelli"
INDEX 00 04:58:40
FILE "08 - Corelli Allegro.wav" WAVE
INDEX 01 00:00:00
TRACK 09 AUDIO
TITLE "Concert for 2 Trumpets (1)"
PERFORMER "Vivaldi"
INDEX 00 02:45:15
FILE "09 - Vivaldi Concert for 2 Trumpets (1).wav" WAVE
INDEX 01 00:00:00
TRACK 10 AUDIO
TITLE "Concert for 2 Trumpets (2)"
PERFORMER "Vivaldi"
INDEX 00 02:53:07
FILE "10 - Vivaldi Concert for 2 Trumpets (2).wav" WAVE
INDEX 01 00:00:00
TRACK 11 AUDIO
TITLE "Concert for 2 Trumpets (3)"
PERFORMER "Vivaldi"
INDEX 00 01:11:63
FILE "11 - Vivaldi Concert for 2 Trumpets (3).wav" WAVE
INDEX 01 00:00:00
TRACK 12 AUDIO
TITLE "Mandolin concerto (1)"
PERFORMER "Vivaldi"
INDEX 00 02:56:15
FILE "12 - Vivaldi Mandolin concerto (1).wav" WAVE
INDEX 01 00:00:00
TRACK 13 AUDIO
TITLE "Mandolin concerto (2)"
PERFORMER "Vivaldi"
INDEX 00 02:56:10
FILE "13 - Vivaldi Mandolin concerto (2).wav" WAVE
INDEX 01 00:00:00
TRACK 14 AUDIO
TITLE "Mandolin concerto (3)"
PERFORMER "Vivaldi"
INDEX 00 01:44:55
FILE "14 - Vivaldi Mandolin concerto (3).wav" WAVE
INDEX 01 00:00:00
TRACK 15 AUDIO
TITLE "Concerto Le Printemps (1)"
PERFORMER "Vivaldi"
INDEX 00 02:25:00
FILE "15 - Vivaldi Concerto Le Printemps (1).wav" WAVE
INDEX 01 00:00:00
TRACK 16 AUDIO
TITLE "Concerto Le Printemps (2)"
PERFORMER "Vivaldi"
INDEX 00 03:59:50
FILE "16 - Vivaldi Concerto Le Printemps (2).wav" WAVE
INDEX 01 00:00:00
TRACK 17 AUDIO
TITLE "Concerto Le Printemps (3)"
PERFORMER "Vivaldi"
INDEX 00 03:22:60
FILE "17 - Vivaldi Concerto Le Printemps (3).wav" WAVE
INDEX 01 00:00:00
TRACK 18 AUDIO
TITLE "Concerto for oboe (1)"
PERFORMER "Marcello"
INDEX 00 04:32:22
FILE "18 - Marcello Concerto for oboe (1).wav" WAVE
INDEX 01 00:00:00
TRACK 19 AUDIO
TITLE "Concerto for oboe (2)"
PERFORMER "Marcello"
INDEX 00 03:16:68
FILE "19 - Marcello Concerto for oboe (2).wav" WAVE
INDEX 01 00:00:00
TRACK 20 AUDIO
TITLE "Concerto for oboe (3)"
PERFORMER "Marcello"
INDEX 00 04:28:65
FILE "20 - Marcello Concerto for oboe (3).wav" WAVE
INDEX 01 00:00:00
TRACK 21 AUDIO
TITLE "Menuet"
PERFORMER "Boccherini"
INDEX 00 03:40:27
FILE "21 - Boccherini Menuet.wav" WAVE
INDEX 01 00:00:00

Disc 2

REM GENRE Classical
REM DATE 1992
REM DISCID 09115E11
REM COMMENT "ExactAudioCopy v1.0b3"
PERFORMER "Various Artists"
TITLE "Baroque Collection - Passion - Disc 2"
FILE "01 - Purcell King Arthur Suite.wav" WAVE
TRACK 01 AUDIO
TITLE "King Arthur Suite"
PERFORMER "Purcell"
PREGAP 00:00:33
INDEX 01 00:00:00
TRACK 02 AUDIO
TITLE "Rondo"
PERFORMER "Purcell"
INDEX 00 09:19:50
FILE "02 - Purcell Rondo.wav" WAVE
INDEX 01 00:00:00
TRACK 03 AUDIO
TITLE "Pastoral Symphony (The Messiah)"
PERFORMER "Handel"
INDEX 00 01:12:65
FILE "03 - Handel Pastoral Symphony (The Messiah).wav" WAVE
INDEX 01 00:00:00
TRACK 04 AUDIO
TITLE "Hornpipe (Water Music)"
PERFORMER "Handel"
INDEX 00 02:39:38
FILE "04 - Handel Hornpipe (Water Music).wav" WAVE
INDEX 01 00:00:00
TRACK 05 AUDIO
TITLE "Largo (Xerxes)"
PERFORMER "Handel"
INDEX 00 02:48:08
FILE "05 - Handel Largo (Xerxes).wav" WAVE
INDEX 01 00:00:00
TRACK 06 AUDIO
TITLE "Badinerie (Suite n 2)"
PERFORMER "Bach"
INDEX 00 05:08:65
FILE "06 - Bach Badinerie (Suite n 2).wav" WAVE
INDEX 01 00:00:00
TRACK 07 AUDIO
TITLE "Air (Suite n 3)"
PERFORMER "Bach"
INDEX 00 01:25:55
FILE "07 - Bach Air (Suite n 3).wav" WAVE
INDEX 01 00:00:00
TRACK 08 AUDIO
TITLE "Jesu, joy of man's desiring"
PERFORMER "Bach"
INDEX 00 04:19:17
FILE "08 - Bach Jesu, joy of man's desiring.wav" WAVE
INDEX 01 00:00:00
TRACK 09 AUDIO
TITLE "Sicilienne"
PERFORMER "Bach"
INDEX 00 02:45:28
FILE "09 - Bach Sicilienne.wav" WAVE
INDEX 01 00:00:00
TRACK 10 AUDIO
TITLE "Concerto for 2 violins I"
PERFORMER "Bach"
INDEX 00 02:19:13
FILE "10 - Bach Concerto for 2 violins I.wav" WAVE
INDEX 01 00:00:00
TRACK 11 AUDIO
TITLE "Concerto for 2 violins II"
PERFORMER "Bach"
INDEX 00 04:11:15
FILE "11 - Bach Concerto for 2 violins II.wav" WAVE
INDEX 01 00:00:00
TRACK 12 AUDIO
TITLE "Concerto for 2 violins III"
PERFORMER "Bach"
INDEX 00 07:38:33
FILE "12 - Bach Concerto for 2 violins III.wav" WAVE
INDEX 01 00:00:00
TRACK 13 AUDIO
TITLE "Suite for flute and strings I"
PERFORMER "Teleman"
INDEX 00 05:23:40
FILE "13 - Teleman Suite for flute and strings I.wav" WAVE
INDEX 01 00:00:00
FILE "14 - Teleman Suite for flute and strings II.wav" WAVE
TRACK 14 AUDIO
TITLE "Suite for flute and strings II"
PERFORMER "Teleman"
INDEX 01 00:00:00
TRACK 15 AUDIO
TITLE "Suite for flute and strings III"
PERFORMER "Teleman"
INDEX 00 03:24:50
FILE "15 - Teleman Suite for flute and strings III.wav" WAVE
INDEX 01 00:00:00
TRACK 16 AUDIO
TITLE "Trumpet concerto I"
PERFORMER "Teleman"
INDEX 00 04:11:25
FILE "16 - Teleman Trumpet concerto I.wav" WAVE
INDEX 01 00:00:00
TRACK 17 AUDIO
TITLE "Trumpet concerto II"
PERFORMER "Teleman"
INDEX 00 03:12:55
FILE "17 - Teleman Trumpet concerto II.wav" WAVE
INDEX 01 00:00:00
Rameau - Les Fetes d'Hebe (Highlights) - Raymond Leppard (EMI)



Показать сообщения:    

Текущее время: 04-Дек 17:14

Часовой пояс: UTC + 3


Вы не можете начинать темы
Вы не можете отвечать на сообщения
Вы не можете редактировать свои сообщения
Вы не можете удалять свои сообщения
Вы не можете голосовать в опросах
Вы не можете прикреплять файлы к сообщениям
Вы не можете скачивать файлы