(Sacred) Marc-Antoine Charpentier - Te Deum, Beatus vir, Salve Regina, Tenebrae factae sunt (Choeur et l'orchestre de la Fondation Gulbenkian de Lisbonne [Gulbenkian Foundation Orchestra & Chorus], Michel Corboz) - 1993, FLAC (image+.cue) lossles


Статистика раздачи [Обновить пиров]
Размер:  294 MB   |    Зарегистрирован:  8 месяцев 16 дней   |    Скачан:  0 раз

Полного источника не было: Никогда

Личеров:  3  [  0 KB/s  ]   Подробная статистика пиров
 
   
 
 
 

[Цитировать]

Marc-Antoine Charpentier - Te Deum, Beatus vir, Salve Regina, Tenebrae factae suntGulbenkian Foundation Orchestra & Chorus | Michel Corboz Жанр: Sacred
Страна-производитель диска: Germany
Год издания диска: 1993
Издатель (лейбл): Erato
Номер по каталогу: 2292-45926-2
Дата записи: 1977
Аудиокодек: FLAC
Тип рипа: image+.cue
Битрейт аудио: lossless
Продолжительность: 1:01:52
Источник: собственный рип
Наличие сканов в содержимом раздачи: да
Треклист:
01. Te Deum, motet for 8 voices, chorus & orchestra, H. 146 28:32 http://youtu.be/oMiNfmdbX7I
02. Beatus vir qui timet Dominum, motet for 5 voices, chorus, instrumets & continuo, H. 224 17:46
03. Salve Regina à 3 choeurs, motet for for 3 choruses & continuo, H. 24 8:35
04. Tenebrae factae sunt, 2e répons 1ère leçon du second nocturne du jeudi saint, motet for bass, strings & continuo, H. 129 7:00
Исполнители:
Gulbenkian Foundation Chamber Orchestra & Chorus, Lisbon
Michel Corboz - conductor

Лог создания рипа

Exact Audio Copy V1.0 beta 2 from 29. April 2011
EAC extraction logfile from 29. November 2014, 19:51
Michel Corboz / Te Deum
Used drive : _NEC DVD_RW ND-3551A Adapter: 0 ID: 0
Read mode : Secure
Utilize accurate stream : Yes
Defeat audio cache : Yes
Make use of C2 pointers : No
Read offset correction : 48
Overread into Lead-In and Lead-Out : No
Fill up missing offset samples with silence : Yes
Delete leading and trailing silent blocks : No
Null samples used in CRC calculations : Yes
Used interface : Native Win32 interface for Win NT & 2000
Used output format : User Defined Encoder
Selected bitrate : 128 kBit/s
Quality : High
Add ID3 tag : No
Command line compressor : D:\Program Files\Exact Audio Copy\Flac\flac.exe
Additional command line options : -V -8 -T "Date=%year%" -T "Genre=%genre%" %source%
TOC of the extracted CD
Track | Start | Length | Start sector | End sector
---------------------------------------------------------
1 | 0:00.00 | 28:32.52 | 0 | 128451
2 | 28:32.52 | 17:46.10 | 128452 | 208411
3 | 46:18.62 | 8:35.65 | 208412 | 247101
4 | 54:54.52 | 7:00.03 | 247102 | 278604
Range status and errors
Selected range
Filename C:\RIP\Charpentier - Te Deum (Corboz).wav
Peak level 99.9 %
Extraction speed 2.2 X
Range quality 99.9 %
Test CRC 5CD1C853
Copy CRC 5CD1C853
Copy OK
No errors occurred
AccurateRip summary
Track 1 cannot be verified as accurate (confidence 2) [F92BEF01], AccurateRip returned [C3FF9A8D] (AR v2)
Track 2 cannot be verified as accurate (confidence 2) [E3B89BCA], AccurateRip returned [C5BDA2ED] (AR v2)
Track 3 cannot be verified as accurate (confidence 2) [C4CB5DFA], AccurateRip returned [FAFD8460] (AR v2)
Track 4 cannot be verified as accurate (confidence 2) [43B2FCB9], AccurateRip returned [045ED17A] (AR v2)
No tracks could be verified as accurate
You may have a different pressing from the one(s) in the database
End of status report
==== Log checksum 5B9BAFAEF39DC26EA8F713F262AFFD2D73C3799023ACA056375C3D31BD404878 ====
[teatrix.ru].t19699.torrent 
Торрент: Зарегистрирован [ 2016-03-19 00:04 ] · A377705D422D4AB247A3E83A4DF03CFA7ADA0D0D

Скачать .torrent

Скачать

12 KB

Статус: проверено
Скачан: 0 раз
Размер: 294 MB
terms.php



Быстрый ответ

Имя:

      
Для отправки сообщений необходимо включить JavaScript
Показать сообщения:    

Текущее время: 04-Дек 02:57

Часовой пояс: UTC + 3


Вы можете начинать темы
Вы можете отвечать на сообщения
Вы не можете редактировать свои сообщения
Вы не можете удалять свои сообщения
Вы не можете голосовать в опросах
Вы не можете прикреплять файлы к сообщениям
Вы можете скачивать файлы