(Classical) Balada - Maria Sabina * Dionisio: In Memoriam (Tejedor, Sanchez, Saiz, Hipolito - Orchestra and Chorus of the Communidad de Madrid, Encinar) - 2008, APE (image+.cue) lossless


Статистика раздачи [Обновить пиров]
Размер:  269 MB   |    Зарегистрирован:  8 месяцев 18 дней   |    Скачан:  0 раз

Полного источника не было: Никогда

Личеров:  3  [  0 KB/s  ]   Подробная статистика пиров
 
   
 
 
 

[Цитировать]

Leonardo Balada - Maria Sabina * Dionisio: In Memoriam
Жанр: Classical
Страна-производитель диска: Canada
Год издания диска: 2008
Издатель (лейбл): Naxos
Номер по каталогу: 8.570425
Дата записи: 2006-2007
Аудиокодек: APE
Тип рипа: image+.cue
Битрейт аудио: lossless
Продолжительность: 68'52
Источник: собственный рип
Наличие сканов в содержимом раздачи: да
Треклист/Исполнители:
Maria Sabina
1. Part I: En la serrania de Oaxaca
2. Part II: Las viejecitas impedidas quieren ahorcar a Maria Sabina
3. Part III: Pedimos que el verdugo ahorque a Maria Sabina
Susi Sanchez, narrator
Angel Saiz, narrator
Fernando Tejedor, narrator
Madrid Community Chorus
Madrid Community Orchestra
Jose Ramon Encinar, ConductorDionisio: In Memoriam
4. Part I: Hambre, Gloria, Vida
5. Part II: Guerra, guerra, la guerra
Carlos Hipolito, narrator
Madrid Community Chorus
Madrid Community Orchestra
Jose Ramon Encinar, Conductor

Лог создания рипа

Exact Audio Copy V1.0 beta 3 from 29. August 2011
EAC extraction logfile from 18. October 2013, 18:48
Balada / Maria Sabina & Dionisio, In Memoriam, Encinar 2006
Used drive : TSSTcorpCDDVDW SH-216AB Adapter: 0 ID: 1
Read mode : Secure
Utilize accurate stream : Yes
Defeat audio cache : Yes
Make use of C2 pointers : No
Read offset correction : 6
Overread into Lead-In and Lead-Out : No
Fill up missing offset samples with silence : Yes
Delete leading and trailing silent blocks : No
Null samples used in CRC calculations : Yes
Used interface : Native Win32 interface for Win NT & 2000
Used output format : Monkey's Audio Lossless Encoder
Selected bitrate : High Lossless Compression
Quality : High
Add ID3 tag : Yes
Command line compressor : K:\Program Files (x86)\Exact Audio Copy\Monkeys Audio\Monkey's Audio\MAC.exe
Additional command line options : -6 -V -T "ARTIST=%artist%" -T "TITLE=%title%" -T "ALBUM=%albumtitle%" -T "DATE=%year%" -T "TRACKNUMBER=%tracknr%" -T "GENRE=%genre%" -T "COMMENT=%comment%" -T "BAND=%albuminterpret%" -T "ALBUMARTIST=%albuminterpret%" -T "COMPOSER=%composer%" %haslyrics%--tag-from-file=LYRICS="%lyricsfile%"%haslyrics% -T "DISCNUMBER=%cdnumber%" -T "TOTALDISCS=%totalcds%" -T "TOTALTRACKS=%numtracks%" %hascover%--picture="%coverfile%"%hascover% %source% -o %dest%
TOC of the extracted CD
Track | Start | Length | Start sector | End sector
---------------------------------------------------------
1 | 0:00.00 | 7:55.07 | 0 | 35631
2 | 7:55.07 | 16:31.56 | 35632 | 110012
3 | 24:26.63 | 13:41.68 | 110013 | 171655
4 | 38:08.56 | 12:41.24 | 171656 | 228754
5 | 50:50.05 | 18:00.09 | 228755 | 309763
Range status and errors
Selected range
Filename I:\Foobar-EAC\Balada - Maria Sabina & Dionisio, In Memoriam, Encinar 2006.wav
Peak level 100.0 %
Extraction speed 7.7 X
Range quality 100.0 %
Test CRC A41E0BF5
Copy CRC A41E0BF5
Copy OK
No errors occurred
AccurateRip summary
Track 1 accurately ripped (confidence 1) [3C2DFE16] (AR v1)
Track 2 accurately ripped (confidence 1) [CB8160F4] (AR v1)
Track 3 accurately ripped (confidence 1) [05496691] (AR v1)
Track 4 accurately ripped (confidence 1) [CC8579B2] (AR v1)
Track 5 accurately ripped (confidence 1) [78C07A54] (AR v1)
All tracks accurately ripped
End of status report
---- CUETools DB Plugin V2.1.3
[CTDB TOCID: QrYxqAI9RIJ8i72Rlv3vIJ_2zGw-] found, Submit result: QrYxqAI9RIJ8i72Rlv3vIJ_2zGw- has been confirmed
[5f178451] (3/3) Accurately ripped
==== Log checksum 54C88C1F558BB58420EC82522EAC3C9D7442D45C7CAD53BBEAE1C22FE6358E21 ====

Содержание индексной карты (.CUE)

REM GENRE Vocal
REM DATE 2006
REM DISCID 3E102205
REM COMMENT "ExactAudioCopy v1.0b3"
PERFORMER "Balada"
TITLE "Maria Sabina & Dionisio, In Memoriam, Encinar 2006"
FILE "Balada - Maria Sabina & Dionisio, In Memoriam, Encinar 2006.ape" WAVE
TRACK 01 AUDIO
TITLE "Maria Sabina: Part I: En la serrania de Oaxaca (The Town Crier, Chorus, )"
PERFORMER "Balada"
ISRC HKI190801701
INDEX 01 00:00:00
TRACK 02 AUDIO
TITLE "Maria Sabina: Part II: Las viejecitas impedidas quieren ahorcar a (Chorus, )"
PERFORMER "Balada"
ISRC HKI190801702
INDEX 00 07:53:45
INDEX 01 07:55:07
TRACK 03 AUDIO
TITLE "Maria Sabina: Part III: Pedimos que el verdugo ahorque a (Chorus, , Constable..."
PERFORMER "Balada"
ISRC HKI190801703
INDEX 01 24:26:63
TRACK 04 AUDIO
TITLE "Dionisio - In Memoriam: Part I: Hambre, Gloria, Vida"
PERFORMER "Balada"
ISRC HKI190801704
INDEX 00 38:06:56
INDEX 01 38:08:56
TRACK 05 AUDIO
TITLE "Dionisio - In Memoriam: Part II: Guerra, guerra, la guerra"
PERFORMER "Balada"
ISRC HKI190801705
INDEX 01 50:50:05
Доп. информация:
The Barcelona-born composer Leonardo Balada is credited with pioneering a blending of ethnic music with avant-garde techniques.
The symphonic tragedy María Sabina, one of Balada’s bestknown works, tells the extraordinary story of Sabina, a Mexican Indian mushroom-cult priestess who meets fierce resistance from her people when endeavouring to open the holy rituals to the outside world.
Some of the text in Balada’s work is based on her incantations, of which the composer has written, “While composing the work, the power of the text was so extraordinary that I felt inspired by it.
I recall composing the music even when I was travelling, in airports or hotels”.
The cantata Dionisio: In Memoriam is a homage to Dionisio Ridruejo, a poet and politician from Soria, Spain, on whose ideological, philosophical and descriptive writings the work is based.
[teatrix.ru].t19701.torrent 
Торрент: Зарегистрирован [ 2016-03-19 00:04 ] · 68D3073BEB571315448FBC5E3468B665EBBDD78A

Скачать .torrent

Скачать

12 KB

Статус: проверено
Скачан: 0 раз
Размер: 269 MB
terms.php



Быстрый ответ

Имя:

      
Для отправки сообщений необходимо включить JavaScript
Показать сообщения:    

Текущее время: 06-Дек 17:03

Часовой пояс: UTC + 3


Вы можете начинать темы
Вы можете отвечать на сообщения
Вы не можете редактировать свои сообщения
Вы не можете удалять свои сообщения
Вы не можете голосовать в опросах
Вы не можете прикреплять файлы к сообщениям
Вы можете скачивать файлы