(Classical) Maurice Ravel - Arrangements for Wind Quintet: String Quartet; Ma mere l'oye; Sonatine - The Orlando Quintet - 2013, FLAC (image+.cue) lossless


 

[Цитировать]

Maurice Ravel - Arrangements for Wind Quintet: String Quartet; Ma mère l'oye; Sonatine - The Orlando Quintet
Жанр: Classical
Год издания диска: 2013
Издатель (лейбл): Brilliant Classics
Номер по каталогу: 94772
Дата записи: 2012
Аудиокодек: FLAC
Тип рипа: image+.cue
Битрейт аудио: lossless
Продолжительность: 52:41
Источник: собственный рип
Наличие сканов в содержимом раздачи: да
Треклист:
Maurice Ravel (1875-1937)
[1]-[4] String Quartet in F (arr. Mark Popkin)
[5]-[9] Ma mère l'oye - Suite (arr. Mark Popkin)
[10]-[12] Sonatine (arr. Wayne Peterson)
Исполнители:
The Orlando Quintet
Marieke Schneemann flute
Pauline Oostenrijk oboe
Lars Wouters van den Oudenweijer clarinet
Bram van Sambeek bassoon
Ron Schaaper horn

Лог создания рипа

Exact Audio Copy V1.0 beta 3 from 29. August 2011
EAC extraction logfile from 6. December 2014, 4:18
The Orlando Quintet / Ravel - Arrangements for Wind Quintet
Used drive : HL-DT-STDVDRAM GU70N Adapter: 0 ID: 0
Read mode : Secure
Utilize accurate stream : Yes
Defeat audio cache : Yes
Make use of C2 pointers : No
Read offset correction : 48
Overread into Lead-In and Lead-Out : No
Fill up missing offset samples with silence : Yes
Delete leading and trailing silent blocks : No
Null samples used in CRC calculations : Yes
Used interface : Native Win32 interface for Win NT & 2000
Used output format : User Defined Encoder
Selected bitrate : 128 kBit/s
Quality : High
Add ID3 tag : No
Command line compressor : C:\Program Files (x86)\Exact Audio Copy\Flac\flac.exe
Additional command line options : -V -8 -T "Date=%year%" -T "Genre=%genre%" %source%
TOC of the extracted CD
Track | Start | Length | Start sector | End sector
---------------------------------------------------------
1 | 0:00.00 | 7:36.42 | 0 | 34241
2 | 7:36.42 | 5:40.74 | 34242 | 59815
3 | 13:17.41 | 8:14.73 | 59816 | 96938
4 | 21:32.39 | 4:21.22 | 96939 | 116535
5 | 25:53.61 | 1:42.38 | 116536 | 124223
6 | 27:36.24 | 3:02.67 | 124224 | 137940
7 | 30:39.16 | 3:34.53 | 137941 | 154043
8 | 34:13.69 | 3:44.59 | 154044 | 170902
9 | 37:58.53 | 2:59.55 | 170903 | 184382
10 | 40:58.33 | 4:17.50 | 184383 | 203707
11 | 45:16.08 | 3:32.31 | 203708 | 219638
12 | 48:48.39 | 3:52.47 | 219639 | 237085
Range status and errors
Selected range
Filename C:\temp\Ravel - Arrangements for Wind Quintet\Ravel - Arrangements for Wind Quintet.wav
Peak level 97.7 %
Extraction speed 2.0 X
Range quality 100.0 %
Test CRC BF2F15DF
Copy CRC BF2F15DF
Copy OK
No errors occurred
AccurateRip summary
Track 1 accurately ripped (confidence 2) [89B62398] (AR v2)
Track 2 accurately ripped (confidence 2) [E434985A] (AR v2)
Track 3 accurately ripped (confidence 2) [57BE6AC6] (AR v2)
Track 4 accurately ripped (confidence 2) [9E5C33FF] (AR v2)
Track 5 accurately ripped (confidence 2) [6864999A] (AR v2)
Track 6 accurately ripped (confidence 2) [5DC3F810] (AR v2)
Track 7 accurately ripped (confidence 2) [C1192C71] (AR v2)
Track 8 accurately ripped (confidence 2) [F9B7AB6A] (AR v2)
Track 9 accurately ripped (confidence 2) [40E467C8] (AR v2)
Track 10 accurately ripped (confidence 2) [07A9DA2F] (AR v2)
Track 11 accurately ripped (confidence 2) [6DB6AF96] (AR v2)
Track 12 accurately ripped (confidence 2) [79277BCA] (AR v2)
All tracks accurately ripped
End of status report
==== Log checksum 2273FE036A21A4673F0147CE8A34DC9E2A40A94D99FC64515E8FAB91916467ED ====



Показать сообщения:    

Текущее время: 05-Дек 01:23

Часовой пояс: UTC + 3


Вы не можете начинать темы
Вы не можете отвечать на сообщения
Вы не можете редактировать свои сообщения
Вы не можете удалять свои сообщения
Вы не можете голосовать в опросах
Вы не можете прикреплять файлы к сообщениям
Вы не можете скачивать файлы