Imaginemos - Curso Avanzado de Salsa [?, Salsa, DVD5] (Видеоурок)


Статистика раздачи [Обновить пиров]
Размер:  2.63 GB   |    Зарегистрирован:  8 месяцев 15 дней   |    Скачан:  0 раз

Полного источника не было: Никогда

Личеров:  3  [  0 KB/s  ]   Подробная статистика пиров
 
   
 
 
 

[Цитировать]

Imaginemos - Curso Avanzado de Salsa
Страна: Spain
Тематика: Salsa
Тип раздаваемого материала: Видеоурок
Продолжительность: 01:17:47
Год выпуска: ?
Язык: Spanish
Перевод: Отсутствует
Язык субтитров: Отсутствуют
Описание: Преподаватель Amaury R. Reinoso Perez родом с кубы, живет и преподает в Испании
Содержание диска:
Introduccion
Sevillana
72 con Salsa
77
Kimbara
Ponle el sombrero
Chamba
Resumen I
87
Ponle el sombrero complicado
Sofocate
Yimba I
Yimba II
Yimba III
Resumen II
Salsa, el baile
Negrito Armenteros videoclips extras
Качество : DVD5
Формат: DVD video
Видео кодек: MPEG2
Аудио кодек: AC3
Видео: 8 000 Kbps, 25.000 fps, 720*576 (4:3), VBR
Аудио: 256 Kbps, 48.0 kHz, stereo, AC3

Отчет MediaInfo

General
Complete name : Imaginemos - Curso Avanzado de Salsa\VIDEO_TS\VTS_02_1.VOB
Format : MPEG-PS
File size : 134 MiB
Duration : 3mn 57s
Overall bit rate : 4 754 Kbps
Writing library : Created with Nero
Video
ID : 224 (0xE0)
Format : MPEG Video
Format version : Version 2
Format profile : Main@Main
Format settings, BVOP : Yes
Format settings, Matrix : Default
Format settings, GOP : M=3, N=15
Duration : 3mn 57s
Bit rate mode : Variable
Bit rate : 4 403 Kbps
Nominal bit rate : 9 578 Kbps
Width : 720 pixels
Height : 576 pixels
Display aspect ratio : 4:3
Frame rate : 25.000 fps
Standard : PAL
Color space : YUV
Chroma subsampling : 4:2:0
Bit depth : 8 bits
Scan type : Interlaced
Scan order : Top Field First
Bits/(Pixel*Frame) : 0.425
Stream size : 124 MiB (93%)
Writing library : Ahead Nero
Audio
ID : 128 (0x80)
Format : AC-3
Format/Info : Audio Coding 3
Mode extension : CM (complete main)
Duration : 3mn 56s
Bit rate mode : Constant
Bit rate : 256 Kbps
Channel(s) : 2 channels
Channel positions : Front: L R
Sampling rate : 48.0 KHz
Bit depth : 16 bits
Stream size : 7.21 MiB (5%)
Menu

Скриншоты

[teatrix.ru].t19706.torrent 
Торрент: Зарегистрирован [ 2016-03-19 00:07 ] · D2201E0A444FF71308F862188C4A60D6222CA9F6

Скачать .torrent

Скачать

17 KB

Статус: проверено
Скачан: 0 раз
Размер: 2.63 GB
terms.php



Быстрый ответ

Имя:

      
Для отправки сообщений необходимо включить JavaScript
Показать сообщения:    

Текущее время: 03-Дек 14:38

Часовой пояс: UTC + 3


Вы можете начинать темы
Вы можете отвечать на сообщения
Вы не можете редактировать свои сообщения
Вы не можете удалять свои сообщения
Вы не можете голосовать в опросах
Вы не можете прикреплять файлы к сообщениям
Вы можете скачивать файлы