Jorjet Alcocer: ChaCha Shine Review [2009, Salsa, DVD5, ENG] (Видеоурок)


Статистика раздачи [Обновить пиров]
Размер:  2.82 GB   |    Зарегистрирован:  8 месяцев 16 дней   |    Скачан:  0 раз

Полного источника не было: 2 месяца 19 дней

Личеров:  3  [  0 KB/s  ]   Подробная статистика пиров
 
   
 
 
 

[Цитировать]

Jorjet Alcocer: ChaCha Shine Review
Страна: USA
Тематика: ChaCha
Тип раздаваемого материала: Видеоурок
Продолжительность: 00:37:26
Год выпуска: 2009
Язык: Английский
Перевод: Отсутствует
Язык субтитров: Отсутствует
Описание: Трой Энтони (Troy Anthony) вместе с Жоржет Алкосер (Jorjet Alcocer) из Latin Motions, New Orleans - известны созданием "креольского стиля сальсы" (поровну микс сальсы ЛА/НЙ с присутствием кубинской). Они выступали и обучали на многих мероприятиях по всему свету. Трой в равной степени последователь в ведение и следовании На1 и На2 и использует эту возможность ведения и следования в своей структуре обучения.

Содержание:

Basics
Fwd & Back Combo
Caballito
Tamambo
Side Crosses
Side 1/2 & 1/2
Lt & Rt Turn
Half Rt-Half Lt
Half Lt-Hook Rt
Leg Trap
Hook Step
Suzy Q
2-3 Clap
Toe Heel
Crossover Suzy
Dbl Flick Braid
Dbl Flick Crossover
Fwd Cut Aways
Rock Away
Angled Shuffles
Cucaracha
Crossover Flares
Shaka
1&2 Half Lt & Rt
Sixty Eight
Bojangles
Angled Grapevine
Soul Slide
Rock & Roll
Back Cut Aways
Fosey
Adj Tabara
Sailors
Grapevine Combo
Cut Away G-V Slide
Flare
Bonus
Bloopers
David's Dance

Рецензия

by fabio SalsaIsGood Date Added: Wednesday 11 August, 2010
With exactly the same format as their Review of Shines On2, Jorjet and Troy compile for us a list of 'standard' or 'must know' Cha Cha Cha shines. The 'Review' term in the DVD title means that each shine is shown to counting a few times and then with styling, but not broken down step by step. Still you can see all steps and styling clearly thanks to the suitable camera position. All you are left to do is to use to remote control to learn them. Jorjet is very good at demonstrating, as usual, and Troy provides some useful hints from the background. A must have.
Fabio from SalsaIsGood
Rating: [5 of 5 Stars!]
Качество : DVD5
Формат: DVD video
Видео кодек: MPEG2
Аудио кодек: PCM
Видео: 8 000 Kbps, 29.970 fps, 720*480 (4:3), VBR
Аудио: 1 536 Kbps, 48.0 kHz, stereo, PCM

Отчет MediaInfo

General
Complete name : Cha Cha Shines Review with Jorjet Alcoser\VIDEO_TS\VTS_04_1.VOB
Format : MPEG-PS
File size : 1 024 MiB
Duration : 18mn 28s
Overall bit rate : 7 747 Kbps
Video
ID : 224 (0xE0)
Format : MPEG Video
Format version : Version 2
Format profile : Main@Main
Format settings, BVOP : Yes
Format settings, Matrix : Default
Format settings, GOP : M=3, N=15
Duration : 18mn 28s
Bit rate mode : Variable
Bit rate : 6 057 Kbps
Nominal bit rate : 8 000 Kbps
Width : 720 pixels
Height : 480 pixels
Display aspect ratio : 4:3
Frame rate : 29.970 fps
Standard : NTSC
Color space : YUV
Chroma subsampling : 4:2:0
Bit depth : 8 bits
Scan type : Interlaced
Scan order : Top Field First
Bits/(Pixel*Frame) : 0.585
Stream size : 800 MiB (78%)
Audio
ID : 160 (0xA0)
Format : PCM
Format settings, Endianness : Big
Format settings, Sign : Signed
Muxing mode : DVD-Video
Duration : 18mn 28s
Bit rate mode : Constant
Bit rate : 1 536 Kbps
Channel(s) : 2 channels
Channel positions : Front: L R
Sampling rate : 48.0 KHz
Bit depth : 16 bits
Stream size : 203 MiB (20%)
Menu

Скриншоты

[teatrix.ru].t19708.torrent 
Торрент: Зарегистрирован [ 2016-03-19 00:10 ] · 996F71896FBEDE6793CC131E0FBAF554FA52ED09

Скачать .torrent

Скачать

16 KB

Статус: проверено
Скачан: 0 раз
Размер: 2.82 GB
terms.php



Быстрый ответ

Имя:

      
Для отправки сообщений необходимо включить JavaScript
Показать сообщения:    

Текущее время: 04-Дек 02:48

Часовой пояс: UTC + 3


Вы можете начинать темы
Вы можете отвечать на сообщения
Вы не можете редактировать свои сообщения
Вы не можете удалять свои сообщения
Вы не можете голосовать в опросах
Вы не можете прикреплять файлы к сообщениям
Вы можете скачивать файлы