LEE HUNTER - GUIDE TO CHA CHA CHA [2007?, ChaCha, DVDRip, ENG] (Видеоурок)


Статистика раздачи [Обновить пиров]
Размер:  1.13 GB   |    Зарегистрирован:  8 месяцев 16 дней   |    Скачан:  1 раз

Полного источника не было: 2 месяца 2 дня

Личеров:  3  [  0 KB/s  ]   Подробная статистика пиров
 
   
 
 
 

[Цитировать]

LEE HUNTER - GUIDE TO CHA CHA CHA
Страна: Great Britain
Тематика: ChaCha
Тип раздаваемого материала: Видеоурок
Продолжительность: 01:44:00
Год выпуска: 2007?
Язык: Английский
Перевод: Отсутствует
Язык субтитров: Отсутствует
Описание: Этот двд совмещает традиционные бальные и латиноамериканские связки с более новым и современным стилем путём введения элементов сальсы и перевод их из ритма сальсы в ритм ча-ча. Каждый элемент индивидуально рассмотрен, сопровождается музыкой с таймингом на экране и показан в замедленной сьёмке для полной ясности.

Содержание:

Beginning
Timing
Basic Steps
Fun
Entries into fun
Entries into fun
Entries into fun
Entries into fun
Exits into fun
Exits into fun
Exits into fun
Exits into fun
Moves
Moves
Moves
Moves
Moves
Shines
Shines Combinations
Credits

Рецензия

At the beginning of the DVD Lee claims that he will show us how to convert basic salsa moves to ChaChaCha music. In fact, I think he does a bit more than that, in the sense that it shows some salsa elements as well as a handful of turn patterns from the ballroom repertoire and puts this material together. Of course mixing salsa with ballroom is a delicate operation, since the result may displease everyone. Lee’s choice makes sense though and I think the elements of ballroom he suggests to us are cleverly chosen and include simple moves and leads salsa dancers are not accustomed to. This, together with some salsa material taken from his ‘Improvers guide to salsa’ and ‘Guide to shines’, makes up a reasonable ChaChaCha repertoire for an intermediate dancer. A full session of the DVD is dedicated to making sure that ChaChaCha is danced on2, rather than on1, and it is properly done. As for all other DVDs from Lee, this also is targeted to a social dance audience, that is at dancers for whom simple and genuine enjoyment is more important than showing off the latest moves in order to make friends envious; for these people, this is a good product.
Reviewed by Fabio - Good
Качество : DVDRip
Формат: AVI
Видео кодек: XviD
Аудио кодек: MP3
Видео: 640x480 (1.33:1), 29.970 fps, XviD Lavf51.12.1~243 kbps avg, 0.026 bit/pixel
Аудио: 44.1 kHz, MPEG Layer 3, 2 ch, ~128.00 kbps Constant

Отчет MediaInfo

General
Complete name : D:\MySeeds\DVDRips\ChaCha\Lee Hunters Guide to Cha Cha Cha\Lee Hunters Guide to Cha Cha Cha.avi
Format : AVI
Format/Info : Audio Video Interleave
Format profile : OpenDML
File size : 1.13 GiB
Duration : 1h 28mn
Overall bit rate : 1 825 Kbps
Writing application : Lavf51.12.1
Video
ID : 0
Format : xvid
Codec ID : xvid
Duration : 1h 28mn
Bit rate : 243 Kbps
Width : 640 pixels
Height : 480 pixels
Display aspect ratio : 4:3
Frame rate : 29.970 fps
Bits/(Pixel*Frame) : 0.026
Stream size : 154 MiB (13%)
Audio
ID : 1
Format : MPEG Audio
Format version : Version 1
Format profile : Layer 3
Mode : Joint stereo
Mode extension : MS Stereo
Codec ID : 55
Codec ID/Hint : MP3
Duration : 11mn 3s
Bit rate mode : Constant
Bit rate : 128 Kbps
Channel(s) : 2 channels
Sampling rate : 44.1 KHz
Stream size : 10.1 MiB (1%)
Alignment : Aligned on interleaves
Interleave, duration : 37 ms (1.11 video frame)

Скриншоты

Скринлист

[teatrix.ru].t19711.torrent 
Торрент: Зарегистрирован [ 2016-03-19 00:07 ] · ECF47BF36933D7BDE2AA1402172A0B647601A85D

Скачать .torrent

Скачать

12 KB

Статус: проверено
Скачан: 1 раз
Размер: 1.13 GB
terms.php



Быстрый ответ

Имя:

      
Для отправки сообщений необходимо включить JavaScript
Показать сообщения:    

Текущее время: 04-Дек 04:54

Часовой пояс: UTC + 3


Вы можете начинать темы
Вы можете отвечать на сообщения
Вы не можете редактировать свои сообщения
Вы не можете удалять свои сообщения
Вы не можете голосовать в опросах
Вы не можете прикреплять файлы к сообщениям
Вы можете скачивать файлы