Jorjet Alcocer - Pachanga [2010, Pachanga, DVDRip] (Видеоурок)


Статистика раздачи [Обновить пиров]
Размер:  1.56 GB   |    Зарегистрирован:  8 месяцев 16 дней   |    Скачан:  0 раз

Полного источника не было: Никогда

Личеров:  3  [  0 KB/s  ]   Подробная статистика пиров
 
   
 
 
 

[Цитировать]

Jorjet Alcocer - Pachanga
Страна: USA
Тематика: Pachanga
Тип раздаваемого материала: Видеоурок
Продолжительность: 01:24:32
Год выпуска: 2010
Язык: English + Spanish
Перевод: Отсутствует
Язык субтитров: Отсутствует
Описание:Трой Энтони (Troy Anthony) вместе с Жоржет Алкосер (Jorjet Alcocer) из Latin Motions, New Orleans -
известны созданием "креольского стиля сальсы" (поровну микс сальсы ЛА/НЙ с присутствием кубинской). Они выступали и
обучали на многих мероприятиях по всему свету. Трой в равной степени последователь в ведение и следовании На1 и На2
и использует эту возможность ведения и следования в своей структуре обучения.
Этот горячий танец в кубинском вкусе - относительно новый на танцполе. Этот обучающий двд известной исполнительницы
Бачаты/Пачанги Jorjet Alcocer (Жоржет Алкосер) показывает к чему стремиться - отличные движения и работa ног.

Рецензия

Pachanga
Level: Int-Adv
Style: Pachanga
Content: Footwork and styling
General Comment: Until a few years ago Pachanga was a dance that 'old' Latinos used to do and most 'new' dancers
had never seen: The generation gap, very likely would have drawn Pachanga into oblivion if not total extinction.
Then Eddie Torres started to travel to Congresses again and to teach it. Of course, the dance got an immediate
revival and Youtube started to broadcast it everywhere. In fact, Pachanga, though not with that name, had already
made in roads into our Salsa dancing since several traditional shines had clear Pachanga inspirations; we simply
did not know. Once again Jorjet provides a gem for all of us to enjoy; unlike the Mambo and Cha Cha Cha shines from
Jorjet and Troy, this DVD contain full instructions: Jorjet assumes you know how to dance salsa (either on1 or on2)
but you have never seen Pachanga. She shows you the basic feel, the body movement, the basic footwork, how to style
it, how to combine footwork and body motion and a few basic variations. Demonstrations are given by Jorjet as well
as a male dancer and two young students. The explanation is very good, both in English and Spanish, and the pace of
the DVD will allow you to follow and practise while you watch. Jorjet's demonstrations of course are 5 star.
Another must have. .
Reviewed by Fabio - Recommended
Качество : DVDRip
Формат: AVI
Видео кодек: XviD
Аудио кодек: MP3
Видео: 640x480 (1.33:1), 29.970 fps, XviD Lavf51.12.1~2 502 kbps avg, 0.272 bit/pixel
Аудио: 44.1 kHz, MPEG Layer 3, 2 ch, ~128.00 kbps Constant

Отчет MediaInfo

General
Complete name : Jorjet Alcocer - Pachanga\Jorjet Alcocer - Pachanga.avi
Format : AVI
Format/Info : Audio Video Interleave
Format profile : OpenDML
File size : 1.56 GiB
Duration : 1h 24mn
Overall bit rate : 2 645 Kbps
Writing application : Lavf51.12.1
Video
ID : 0
Format : xvid
Codec ID : xvid
Duration : 1h 24mn
Bit rate : 2 502 Kbps
Width : 640 pixels
Height : 480 pixels
Display aspect ratio : 4:3
Frame rate : 29.970 fps
Bits/(Pixel*Frame) : 0.272
Stream size : 1.48 GiB (95%)
Audio
ID : 1
Format : MPEG Audio
Format version : Version 1
Format profile : Layer 3
Mode : Joint stereo
Mode extension : MS Stereo
Codec ID : 55
Codec ID/Hint : MP3
Duration : 1h 24mn
Bit rate mode : Constant
Bit rate : 128 Kbps
Channel(s) : 2 channels
Sampling rate : 44.1 KHz
Stream size : 77.4 MiB (5%)
Alignment : Aligned on interleaves
Interleave, duration : 26 ms (0.78 video frame)
Writing library : LAME3.97

Скриншоты

Скринлист

[teatrix.ru].t19712.torrent 
Торрент: Зарегистрирован [ 2016-03-19 00:09 ] · A7DD2C1212E98B572E367AC3888DBB9F6E06A148

Скачать .torrent

Скачать

16 KB

Статус: проверено
Скачан: 0 раз
Размер: 1.56 GB
terms.php



Быстрый ответ

Имя:

      
Для отправки сообщений необходимо включить JavaScript
Показать сообщения:    

Текущее время: 04-Дек 11:13

Часовой пояс: UTC + 3


Вы можете начинать темы
Вы можете отвечать на сообщения
Вы не можете редактировать свои сообщения
Вы не можете удалять свои сообщения
Вы не можете голосовать в опросах
Вы не можете прикреплять файлы к сообщениям
Вы можете скачивать файлы