Juan Ruiz: Bachata Moderna 1-2 [2010, Bachata, DVD5, ENG] (Видеоурок)


Статистика раздачи [Обновить пиров]
Размер:  2.8 GB   |    Зарегистрирован:  8 месяцев 23 дня   |    Скачан:  0 раз

Полного источника не было: Никогда

Личеров:  3  [  0 KB/s  ]   Подробная статистика пиров
 
   
 
 
 

[Цитировать]

Juan Ruiz: Bachata Moderna 1-2
Страна: Australia
Тематика: Bachata
Тип раздаваемого материала: Видеоурок
Продолжительность: 01:17:48
Год выпуска: 2010
Язык: Английский
Перевод: Отсутствует
Язык субтитров: Отсутствует
Описание: Хуан Руиз (Juan Ruiz)
Хуан родился в Эквадоре, но в юности переехал в США. Живя в Чикаго более 6-ти лет, в душе он был уличным танцором, до тех пор пока не был правильно обучен в различных танцевальных академиях поблизости от его дома. Именно там Хуан познакомился с бачатой, изучая в многокультурном городе от различных танцоров таких как доминиканцы, пуэрториканцы, испанцы, мексиканцы и многие другие. Этот комбинированный сплав техники и культурного стиля - то, что делает его таким уникальным.
Хуан ответственнен за помешательство на бачате в Австралии в 2004-м в новой стране и культуре, когда он приехал в Сидней... только для того, чтобы узнать, что его самый любимый танец является табу, никогда не звучит в ночных клубах и ему не обучают в танцевальных студиях. Вдохновлённый как никто другой мог быть бачатой, Хуан начал вести классы и уроки, а также раскручивать музыку бачаты различным влиятельным диджеям, в ночных клубах и латиноамериканских соревнованиях. именно оттуда пошла его быстрорастущая слава как ‘El Bachatero’ (танцор бачаты), делая его самый известным инструктором бачаты в Австралии и Новой Зеландии. С тех пор Хуан стал одним из самых влиятельных танцоров бачаты в мире. Но преподавал на сотнях воркшопов по всему миру (Австралия, Новая Зеландия, Сингапур, Малайзия, Тайвань, Франция, США и другие) и выступал на престижных латиноамериканских событиях по всему миру. Хуан также один из организаторов успешного Сиднейского фестиваля бачаты и директор журнала Bachateros Online Magazine - одного из первых веб порталов посвящённых исключительно бачате.
Хуан пионер движения Bachata Moderna и его пособия и движения используются по всему миру (вы можете прочесть историю Bachata Moderna на сайте журнала Bachateros Online Magazine). С развитием и эволюцией музыки бачаты, Хуан убедился что танец тоже изменяется. Bachata Moderna - более стилизированный стиль бачаты, где танцоры могу добавлять различные футворки и переходы и все еще оставаться истинной формой бачаты, поддерживая чувства и эмоциональные элементы, которые и делают бачату тем, чем она является.

Содержание:

Volume 1 - Fundamentals, More then just Bachata:
Bachata Basics
Basic Bachata Turn
Bachata Together
Cross on 2
Cross on 3
Cross on 1
Cross on 1 and 2
Cross Over
The About Turn
Zouk Bachata
Farewell
Free Style
Credit
Volume 2 - Funky & Sexy Combination, Crossing The Boundaties of Bachata:
Intro
Around The World
Exit On 1
The Moderna Caminito
Around Your Hips
Slow Step Bachata
Across The Street
Moderna Dip
Bonus: The Vine
Farewell
Free Style Dance
Credit
Качество : DVD5
Формат: DVD video
Видео кодек: MPEG2
Аудио кодек: AC3
Видео: 7 500 Kbps, 25.000 fps, 720*576 (16:9), VBR
Аудио: 192 Kbps, 48.0 kHz, stereo, AC3

Отчет MediaInfo

General
Complete name : Juan Ruiz - Bachata Moderna 1-2\VIDEO_TS\VTS_04_1.VOB
Format : MPEG-PS
File size : 106 MiB
Duration : 3mn 44s
Overall bit rate : 3 961 Kbps
Writing library : DVDSP_MARKER_INFO 1.0 / 2 / 1270 4572000 8 Marker 1 / 1821 6555600 22 Chapter 4 With Partner
Video
ID : 224 (0xE0)
Format : MPEG Video
Format version : Version 2
Format profile : Main@Main
Format settings, BVOP : Yes
Format settings, Matrix : Default
Duration : 40ms
Bit rate mode : Variable
Bit rate : 3 690 Kbps
Nominal bit rate : 7 500 Kbps
Width : 720 pixels
Height : 576 pixels
Display aspect ratio : 16:9
Frame rate : 25.000 fps
Standard : PAL
Color space : YUV
Chroma subsampling : 4:2:0
Bit depth : 8 bits
Scan type : Interlaced
Scan order : Top Field First
Bits/(Pixel*Frame) : 0.356
Stream size : 18.0 KiB (0%)
Writing library : DVDSP_MARKER_INFO 1.0 / 2 / 1270 4572000 8 Marker 1 / 1821 6555600 22 Chapter 4 With Partner
Audio
ID : 128 (0x80)
Format : AC-3
Format/Info : Audio Coding 3
Mode extension : CM (complete main)
Duration : 3mn 44s
Bit rate mode : Constant
Bit rate : 192 Kbps
Channel(s) : 2 channels
Channel positions : Front: L R
Sampling rate : 48.0 KHz
Bit depth : 16 bits
Stream size : 5.15 MiB (5%)
Menu

Скриншоты

[teatrix.ru].t19713.torrent 
Торрент: Зарегистрирован [ 2016-03-19 00:09 ] · 13CDF1166051317624D7AF746DDD550D0EB8102F

Скачать .torrent

Скачать

20 KB

Статус: проверено
Скачан: 0 раз
Размер: 2.8 GB
terms.php



Быстрый ответ

Имя:

      
Для отправки сообщений необходимо включить JavaScript
Показать сообщения:    

Текущее время: 11-Дек 14:59

Часовой пояс: UTC + 3


Вы можете начинать темы
Вы можете отвечать на сообщения
Вы не можете редактировать свои сообщения
Вы не можете удалять свои сообщения
Вы не можете голосовать в опросах
Вы не можете прикреплять файлы к сообщениям
Вы можете скачивать файлы