Juan Ruiz: Bachata Moderna 1-2 [2010, Bachata, DVDRip, ENG] (Видеоурок)


Статистика раздачи [Обновить пиров]
Размер:  927 MB   |    Зарегистрирован:  8 месяцев 20 дней   |    Скачан:  1 раз

Полного источника не было: 2 месяца 7 дней

Личеров:  3  [  0 KB/s  ]   Подробная статистика пиров
 
   
 
 
 

[Цитировать]

Juan Ruiz: Bachata Moderna 1-2
Страна: Australia
Тематика: Bachata
Тип раздаваемого материала: Видеоурок
Продолжительность: 01:17:48
Год выпуска: 2010
Язык: Английский
Перевод: Отсутствует
Язык субтитров: Отсутствует
Описание: Хуан Руиз (Juan Ruiz)
Хуан родился в Эквадоре, но в юности переехал в США. Живя в Чикаго более 6-ти лет, в душе он был уличным танцором, до тех пор пока не был правильно обучен в различных танцевальных академиях поблизости от его дома. Именно там Хуан познакомился с бачатой, изучая в многокультурном городе от различных танцоров таких как доминиканцы, пуэрториканцы, испанцы, мексиканцы и многие другие. Этот комбинированный сплав техники и культурного стиля - то, что делает его таким уникальным.
Хуан ответственнен за помешательство на бачате в Австралии в 2004-м в новой стране и культуре, когда он приехал в Сидней... только для того, чтобы узнать, что его самый любимый танец является табу, никогда не звучит в ночных клубах и ему не обучают в танцевальных студиях. Вдохновлённый как никто другой мог быть бачатой, Хуан начал вести классы и уроки, а также раскручивать музыку бачаты различным влиятельным диджеям, в ночных клубах и латиноамериканских соревнованиях. именно оттуда пошла его быстрорастущая слава как ‘El Bachatero’ (танцор бачаты), делая его самый известным инструктором бачаты в Австралии и Новой Зеландии. С тех пор Хуан стал одним из самых влиятельных танцоров бачаты в мире. Но преподавал на сотнях воркшопов по всему миру (Австралия, Новая Зеландия, Сингапур, Малайзия, Тайвань, Франция, США и другие) и выступал на престижных латиноамериканских событиях по всему миру. Хуан также один из организаторов успешного Сиднейского фестиваля бачаты и директор журнала Bachateros Online Magazine - одного из первых веб порталов посвящённых исключительно бачате.
Хуан пионер движения Bachata Moderna и его пособия и движения используются по всему миру (вы можете прочесть историю Bachata Moderna на сайте журнала Bachateros Online Magazine). С развитием и эволюцией музыки бачаты, Хуан убедился что танец тоже изменяется. Bachata Moderna - более стилизированный стиль бачаты, где танцоры могу добавлять различные футворки и переходы и все еще оставаться истинной формой бачаты, поддерживая чувства и эмоциональные элементы, которые и делают бачату тем, чем она является.

Содержание:

Volume 1 - Fundamentals, More then just Bachata:
Bachata Basics
Basic Bachata Turn
Bachata Together
Cross on 2
Cross on 3
Cross on 1
Cross on 1 and 2
Cross Over
The About Turn
Zouk Bachata
Farewell
Free Style
Credit
Volume 2 - Funky & Sexy Combination, Crossing The Boundaties of Bachata:
Intro
Around The World
Exit On 1
The Moderna Caminito
Around Your Hips
Slow Step Bachata
Across The Street
Moderna Dip
Bonus: The Vine
Farewell
Free Style Dance
Credit
Качество : DVDRip
Формат: AVI
Видео кодек: XviD
Аудио кодек: MP3
Видео: 640x480 (1.33:1), 29.970 fps, XviD Lavf51.12.1~1 524 kbps avg, 0.166 bit/pixel
Аудио: 44.1 kHz, MPEG Layer 3, 2 ch, ~128.00 kbps Constant

Отчет MediaInfo

General
Complete name : Juan Ruiz - Bachata Moderna 1-2\Juan Ruiz - Bachata Moderna 1-2.avi
Format : AVI
Format/Info : Audio Video Interleave
File size : 927 MiB
Duration : 1h 17mn
Overall bit rate : 1 665 Kbps
Writing application : Lavf51.12.1
Video
ID : 0
Format : xvid
Codec ID : xvid
Duration : 1h 17mn
Bit rate : 1 524 Kbps
Width : 640 pixels
Height : 480 pixels
Display aspect ratio : 4:3
Frame rate : 29.970 fps
Bits/(Pixel*Frame) : 0.166
Stream size : 848 MiB (92%)
Audio
ID : 1
Format : MPEG Audio
Format version : Version 1
Format profile : Layer 3
Mode : Joint stereo
Mode extension : MS Stereo
Codec ID : 55
Codec ID/Hint : MP3
Duration : 1h 17mn
Bit rate mode : Constant
Bit rate : 128 Kbps
Channel(s) : 2 channels
Sampling rate : 44.1 KHz
Stream size : 71.2 MiB (8%)
Alignment : Aligned on interleaves
Interleave, duration : 26 ms (0.78 video frame)

Скриншоты

Скринлист

[teatrix.ru].t19714.torrent 
Торрент: Зарегистрирован [ 2016-03-19 00:09 ] · C72ADC8766B01D8F2B657F59D5DE01406C3182FE

Скачать .torrent

Скачать

19 KB

Статус: проверено
Скачан: 1 раз
Размер: 927 MB
terms.php



Быстрый ответ

Имя:

      
Для отправки сообщений необходимо включить JavaScript
Показать сообщения:    

Текущее время: 08-Дек 19:10

Часовой пояс: UTC + 3


Вы можете начинать темы
Вы можете отвечать на сообщения
Вы не можете редактировать свои сообщения
Вы не можете удалять свои сообщения
Вы не можете голосовать в опросах
Вы не можете прикреплять файлы к сообщениям
Вы можете скачивать файлы