(Baroque, Wind Concerto) Georg Philipp Telemann - Flute Concertos, Suite in E Minor (Franz Liszt Academy Chamber Orchestra, Janos Rolla, Jean-Pierre Rampal) - 1987, FLAC (image+.cue) lossless


 

[Цитировать]

Georg Philipp Telemann - Flute Concertos • Suite in E MinorFranz Liszt Academy Chamber Orchestra • Janos Rolla • Jean-Pierre Rampal Жанр: Baroque, Wind Concerto
Страна-производитель диска: EU
Год издания диска: 1987
Издатель (лейбл): CBS
Номер по каталогу: MK 42362
Дата записи: 1985
Аудиокодек: FLAC
Тип рипа: image+.cue
Битрейт аудио: lossless
Продолжительность: 50:12
Источник: скачано с odeonmusic
Наличие сканов в содержимом раздачи: да
Треклист:
Overture, suite for oboe (or flute), strings & continuo in E minor, TWV 55:e10
1. Ouvertüre 6:05
2. Rigaudon 2:35
3. Carillon 1:23
4. Air: Tendrement 2:41
5. Menuet I; Menuet II 2:20
6. Gigue 2:27
Concerto for flute, strings & continuo in G major, TWV 51:AnhG1
7. Allegro ma non troppo 5:01
8. Adagio 2:29
9. Allegro 3:18
Concerto for flute, strings & continuo in D major, TWV 51:D2
10. Moderato 2:32
11. Allegro 3:16
12. Largo 3:20
13. Vivace 3:24
Concerto for flute, violin & strings in E minor "Concerto à Sei", TWV 52:e3
14. Allegro 2:36
15. Adagio 2:06
16. Presto 1:13
17. Adagio & 5. Allegro 3:12
Исполнители:
Jean-Pierre Rampal - flute
Franz Liszt Academy Chamber Orchestra
János Rolla - conductor

Лог создания рипа

Exact Audio Copy V1.0 beta 3 from 29. August 2011
EAC extraction logfile from 4. April 2012, 19:21
Jean-Pierre Rampal / Telemann - Flute Concertos - Rampal
Used drive : HL-DT-STDVDRAM GSA-H10A Adapter: 0 ID: 0
Read mode : Secure
Utilize accurate stream : Yes
Defeat audio cache : Yes
Make use of C2 pointers : No
Read offset correction : 667
Overread into Lead-In and Lead-Out : No
Fill up missing offset samples with silence : Yes
Delete leading and trailing silent blocks : No
Null samples used in CRC calculations : Yes
Used interface : Native Win32 interface for Win NT & 2000
Used output format : User Defined Encoder
Selected bitrate : 1024 kBit/s
Quality : High
Add ID3 tag : No
Command line compressor : C:\Program Files\Exact Audio Copy\Flac\flac.exe
Additional command line options : -8 -V -T "TITLE=%title%" -T "ARTIST=%artist%" -T "ALBUMARTIST=%albumartist%" -T "ALBUM=%albumtitle%" -T "DATE=%year%" -T "TRACKNUMBER=%tracknr%" -T "TRACKTOTAL=%numtracks%" -T "GENRE=%genre%" -T "COMMENT=%comment%" -T "PERFORMER=%albuminterpret%" -T "COMPOSER=%composer%" %source% -o %dest%
TOC of the extracted CD
Track | Start | Length | Start sector | End sector
---------------------------------------------------------
1 | 0:00.00 | 6:05.67 | 0 | 27441
2 | 6:05.67 | 2:35.13 | 27442 | 39079
3 | 8:41.05 | 1:24.27 | 39080 | 45406
4 | 10:05.32 | 2:41.70 | 45407 | 57551
5 | 12:47.27 | 2:20.48 | 57552 | 68099
6 | 15:08.00 | 2:27.45 | 68100 | 79169
7 | 17:35.45 | 5:01.60 | 79170 | 101804
8 | 22:37.30 | 2:29.65 | 101805 | 113044
9 | 25:07.20 | 3:18.40 | 113045 | 127934
10 | 28:25.60 | 2:32.42 | 127935 | 139376
11 | 30:58.27 | 3:16.35 | 139377 | 154111
12 | 34:14.62 | 3:20.53 | 154112 | 169164
13 | 37:35.40 | 3:24.07 | 169165 | 184471
14 | 40:59.47 | 2:36.63 | 184472 | 196234
15 | 43:36.35 | 2:06.50 | 196235 | 205734
16 | 45:43.10 | 1:13.40 | 205735 | 211249
17 | 46:56.50 | 3:15.35 | 211250 | 225909
Range status and errors
Selected range
Filename F:\Ripped general\[0474] Telemann - Flute Concertos - Rampal\Telemann - Flute Concertos - Rampal.wav
Peak level 57.5 %
Extraction speed 7.2 X
Range quality 100.0 %
Test CRC BE5F7B00
Copy CRC BE5F7B00
Copy OK
No errors occurred
AccurateRip summary
Track 1 not present in database
Track 2 not present in database
Track 3 not present in database
Track 4 not present in database
Track 5 not present in database
Track 6 not present in database
Track 7 not present in database
Track 8 not present in database
Track 9 not present in database
Track 10 not present in database
Track 11 not present in database
Track 12 not present in database
Track 13 not present in database
Track 14 not present in database
Track 15 not present in database
Track 16 not present in database
Track 17 not present in database
None of the tracks are present in the AccurateRip database
End of status report

Лог проверки качества

AUDIOCHECKER v2.0 beta (build 457) - by Dester - opdester@freemail.hu
~~~~~~~~~~~~~~~~~~~~~~~~~~~~~~~~~~
-=== DO NOT EDIT THIS FILE! ===-
Path: ...\Telemann - Flute Concertos (Rampal)
1 -=- Telemann - Flute Concertos - Rampal.flac -=- CDDA (100%)
179786580



Показать сообщения:    

Текущее время: 07-Дек 11:39

Часовой пояс: UTC + 3


Вы не можете начинать темы
Вы не можете отвечать на сообщения
Вы не можете редактировать свои сообщения
Вы не можете удалять свои сообщения
Вы не можете голосовать в опросах
Вы не можете прикреплять файлы к сообщениям
Вы не можете скачивать файлы