Как Чарли Чаплин стал бродягой / La naissance de Charlot / The Birth of the Tramp / How Chaplin Became the Tramp (Серж Бромберг / Serge Bromberg, Эрик Ланж / Eric Lange) [2013, документальное, биография, HDRip]


Статистика раздачи [Обновить пиров]
Размер:  1.09 GB   |    Зарегистрирован:  8 месяцев 22 дня   |    Скачан:  1 раз

Полного источника не было: 15 дней

Личеров:  3  [  0 KB/s  ]   Подробная статистика пиров
 
   
 
 
 

[Цитировать]

Как Чарли Чаплин стал бродягой / La naissance de Charlot / The Birth of the Tramp / How Chaplin Became the Tramp
Дата/Год выпуска: 2013
Страна: Франция
Жанр: документальное, биография
Продолжительность: 01:02:56
Перевод: Профессиональный (многоголосый закадровый)
Доп. инфо о переводе: кинокомпания "AB-Video"
Русские субтитры: нет
Оригинальная аудиодорожка: английский
Режиссер: Серж Бромберг / Serge Bromberg, Эрик Ланж / Eric Lange
Описание: Очень многое уже рассказано о легенде Чарли Чаплина. Но как же все-таки вышло, что дитя улицы, родившийся в одном из самых неблагополучных кварталов Лондона, за столь короткий срок стал самым знаменитым человеком в мире? Как едва зародившееся кино вышло за пределы мюзик-холлов и водевилей и за короткий срок прошло путь от ярмарочного развлечения до индустрии, делающей состояния и создающей знаменитостей практически мгновенно? Наш фильм воссоздаст историю успеха Чаплина, который пережил время и моду. Мы исследуем тайну этого успеха и увидим, как бродяга в котелке, с тросточкой и в больших ботинках за несколько месяцев проталкивает кинематограф в современность… и становится своего рода властелином мира.
Сэмпл: http://multi-up.com/1020423
качество: HDRip
формат: AVI
Видео: MPEG4, XviD, 720x400 (16/9), 23.976 fps, 2 085 Kbps (0.302 bit/pixel)
Аудио: AC-3, 48.0 KHz, 2 ch, 192 Kbps, CBR

MediaInfo

Общее
Полное имя : K:\Как Чарли Чаплин стал бродягой.avi
Формат : AVI
Формат/Информация : Audio Video Interleave
Размер файла : 1,09 Гбайт
Продолжительность : 1 ч. 2 м.
Общий поток : 2483 Кбит/сек
Название фильма : Как Чарли Чаплин стал бродягой / La naissance de Charlot / The Birth of the Tramp / How Chaplin Became the Tramp (2013)
Программа кодирования : VirtualDubMod 1.5.10.2 (build 2540/release)
Библиотека кодирования : VirtualDubMod build 2540/release
Правообладатель : miha2154
Видео
Идентификатор : 0
Формат : MPEG-4 Visual
Профиль формата : Advanced Simple@L5
Параметр BVOP формата : 1
Параметр QPel формата : Нет
Параметр GMC формата : Без точки перехода
Параметр матрицы формата : Выборочная
Идентификатор кодека : XVID
Идентификатор кодека/Подсказка : XviD
Продолжительность : 1 ч. 2 м.
Битрейт : 2085 Кбит/сек
Ширина : 720 пикселей
Высота : 400 пикселей
Соотношение сторон : 16:9
Частота кадров : 23,976 кадра/сек
Цветовое пространство : YUV
Субдискретизация насыщенности : 4:2:0
Битовая глубина : 8 бит
Тип развёртки : Прогрессивная
Метод сжатия : С потерями
Бит/(Пиксели*Кадры) : 0.302
Размер потока : 939 Мбайт (84%)
Библиотека кодирования : XviD 65
Аудио #1
Идентификатор : 1
Формат : AC-3
Формат/Информация : Audio Coding 3
Расширение режима : CM (complete main)
Параметр Endianness формата : Big
Идентификатор кодека : 2000
Продолжительность : 1 ч. 2 м.
Вид битрейта : Постоянный
Битрейт : 192 Кбит/сек
Каналы : 2 канала
Расположение каналов : Front: L R
Частота : 48,0 КГц
Битовая глубина : 16 бит
Метод сжатия : С потерями
Размер потока : 86,4 Мбайт (8%)
Выравнивание : Разделение по промежуткам
Продолжительность промежутка : 42 мс. (1,00 видеокадр)
Время предзагрузки промежутка : 500 мс.
Заголовок : Профессиональный (многоголосый закадровый) 1 канал
Аудио #2
Идентификатор : 2
Формат : AC-3
Формат/Информация : Audio Coding 3
Расширение режима : CM (complete main)
Параметр Endianness формата : Big
Идентификатор кодека : 2000
Продолжительность : 1 ч. 2 м.
Вид битрейта : Постоянный
Битрейт : 192 Кбит/сек
Каналы : 2 канала
Расположение каналов : Front: L R
Частота : 48,0 КГц
Битовая глубина : 16 бит
Метод сжатия : С потерями
Размер потока : 86,4 Мбайт (8%)
Выравнивание : Разделение по промежуткам
Продолжительность промежутка : 42 мс. (1,00 видеокадр)
Время предзагрузки промежутка : 500 мс.
Заголовок : Английский

Скриншоты

[teatrix.ru].t19717.torrent 
Торрент: Зарегистрирован [ 2016-03-19 00:04 ] · FE0037E99801526583C1C1A053735E5A7C2BA12D

Скачать .torrent

Скачать

11 KB

Статус: проверено
Скачан: 1 раз
Размер: 1.09 GB
terms.php



Быстрый ответ

Имя:

      
Для отправки сообщений необходимо включить JavaScript
Показать сообщения:    

Текущее время: 10-Дек 19:33

Часовой пояс: UTC + 3


Вы можете начинать темы
Вы можете отвечать на сообщения
Вы не можете редактировать свои сообщения
Вы не можете удалять свои сообщения
Вы не можете голосовать в опросах
Вы не можете прикреплять файлы к сообщениям
Вы можете скачивать файлы