(Opera) Wagner - Tannhauser, Dresden-Version (van Mill, Kozub, Nurmela, Kollo, Herwig, Hillebrecht - Orchestra e Coro del Teatro La Fenice, Wallberg) - 2000, APE (image+.cue) lossless


 

[Цитировать]

Richard Wagner (1813-1883) - Tannhäuser und der Sängerkrieg auf Wartburg
Жанр: Opera
Страна-производитель диска: Germany
Год издания диска: 2000
Издатель (лейбл): Mondo Musica
Номер по каталогу: MFOH 10705
Дата записи: 1969
Аудиокодек: APE
Тип рипа: image+.cue
Битрейт аудио: lossless
Продолжительность: 66'43+58'34+47'03
Источник: собственный рип
Наличие сканов в содержимом раздачи: да
Треклист:
CD1
1 - Ouvertüre
ERSTER AUFZUG
2 - Szene I. Der Venusberg
3 - Naht euch dem Strande!
4 - Geliebter,sag'! wo weilt dein Sinn ?
5 - Frau Holda kam aus dem Berg hervor
6 - Wer ist der dort in brünstigem Gebete?
CD2
ZWEITER AUFZUG
1 - Einleitung
2 - Dich, teure Halle, grüss ich wieder
3 - Dort ist sie!
4 - Dich treff ich hier in dieser Halle?
5 - Landgraf, Elisabeth, Sänger, Grafen, Ritter, Edelfrauen
6 - Freudig begrüßen wir die edle Halle
7 - Blick' ich umher in diesem edlen Kreise
CD3
DRITTER AUFZUG
1 - Einleitung: Tannhäuser Pilgerfahrt
2 - Wohl wußt' ich sie hier im Gebet zu finden
3 - Pilcherchor: Beglückt darf nun
4 - Gebet der Elisabeth: Allmächt'ge Jungfrau, hör' mein Flehen!
5 - Wolfram: Wie Todesahnung Dämm'rung deckt die Lande
6 - Ich höre Harfenschlag (Romerzählung)
7 - Inbrunst im Herzen
8 - Willkommen, ungetreuer Mann! Sänger, Ritter, Pilger
9 - Landgraf
Исполнители:
Richard Wagner (1813-1883) - Tannhäuser und der Sängerkrieg auf Wartburg
Dresden-Version
Landgraf Hermann - Arnold van Mill
Tannhäuser - Ernst Kozub
Wolfram - Kari Nurmela
Walther - René Kollo
Biterolf - Alfons Herwig
Heinrich - Heinz-Günther Zimmermann
Reinmar - Walter Hagner
Elisabeth - Hildegard Hillebrecht
Venus - Sigrid Kehl
Ein junger Hirt - Carol Malone
Dirigent: Heinz Wallberg
Orchestra e Coro del Teatro La Fenice
Live -Aufnahme aus dem Teatro La Fenice, Venezia
February 16, 1969

Лог создания рипа

CD1

Exact Audio Copy V1.0 beta 3 from 29. August 2011
EAC extraction logfile from 29. November 2014, 11:53
Wagner / Tannhäuser, Wallberg CD1
Used drive : TS8XDVDSTRANSCEND Adapter: 1 ID: 1
Read mode : Secure
Utilize accurate stream : Yes
Defeat audio cache : Yes
Make use of C2 pointers : No
Read offset correction : 6
Overread into Lead-In and Lead-Out : No
Fill up missing offset samples with silence : Yes
Delete leading and trailing silent blocks : No
Null samples used in CRC calculations : Yes
Used interface : Native Win32 interface for Win NT & 2000
Used output format : Monkey's Audio Lossless Encoder
Selected bitrate : High Lossless Compression
Quality : High
Add ID3 tag : Yes
Command line compressor : C:\Program Files (x86)\Exact Audio Copy\MAC\MAC.exe
TOC of the extracted CD
Track | Start | Length | Start sector | End sector
---------------------------------------------------------
1 | 0:00.00 | 14:08.05 | 0 | 63604
2 | 14:08.05 | 1:32.54 | 63605 | 70558
3 | 15:40.59 | 15:11.67 | 70559 | 138950
4 | 30:52.51 | 17:00.25 | 138951 | 215475
5 | 47:53.01 | 8:52.37 | 215476 | 255412
6 | 56:45.38 | 9:55.42 | 255413 | 300079
Range status and errors
Selected range
Filename D:\EAC\Wagner - Tannhäuser, Wallberg CD1.wav
Peak level 93.9 %
Extraction speed 1.9 X
Range quality 100.0 %
Test CRC 6E4DC977
Copy CRC 6E4DC977
Copy OK
No errors occurred
AccurateRip summary
Track 1 accurately ripped (confidence 1) [E9FDBF78] (AR v1)
Track 2 accurately ripped (confidence 1) [3EC52648] (AR v1)
Track 3 accurately ripped (confidence 1) [0EEF1FEF] (AR v1)
Track 4 accurately ripped (confidence 1) [C333F6E4] (AR v1)
Track 5 accurately ripped (confidence 1) [B7D11695] (AR v1)
Track 6 accurately ripped (confidence 1) [414FE3D0] (AR v1)
All tracks accurately ripped
End of status report
---- CUETools DB Plugin V2.1.3
[CTDB TOCID: 7Ioeq99RHo_AlhEbJMyaBkK_2Lg-] disk not present in database, Submit result: unrecognized or virtual drive
==== Log checksum 3BA79B57B30D56DA1E5E44AA82EAC40388E975B77758A0A35653F8CA7F56A5A4 ====

CD2

Exact Audio Copy V1.0 beta 3 from 29. August 2011
EAC extraction logfile from 29. November 2014, 11:43
Wagner / Tannhäuser, Wallberg CD2
Used drive : TSSTcorpCDDVDW SE-208AB Adapter: 1 ID: 0
Read mode : Secure
Utilize accurate stream : Yes
Defeat audio cache : Yes
Make use of C2 pointers : No
Read offset correction : 6
Overread into Lead-In and Lead-Out : No
Fill up missing offset samples with silence : Yes
Delete leading and trailing silent blocks : No
Null samples used in CRC calculations : Yes
Used interface : Native Win32 interface for Win NT & 2000
Used output format : Monkey's Audio Lossless Encoder
Selected bitrate : High Lossless Compression
Quality : High
Add ID3 tag : Yes
Command line compressor : C:\Program Files (x86)\Exact Audio Copy\MAC\MAC.exe
TOC of the extracted CD
Track | Start | Length | Start sector | End sector
---------------------------------------------------------
1 | 0:00.00 | 1:52.25 | 0 | 8424
2 | 1:52.25 | 3:01.44 | 8425 | 22043
3 | 4:53.69 | 9:12.18 | 22044 | 63461
4 | 14:06.12 | 3:28.48 | 63462 | 79109
5 | 17:34.60 | 2:49.55 | 79110 | 91839
6 | 20:24.40 | 10:20.10 | 91840 | 138349
7 | 30:44.50 | 27:49.40 | 138350 | 263564
Range status and errors
Selected range
Filename D:\EAC\Wagner - Tannhäuser, Wallberg CD2.wav
Peak level 83.2 %
Extraction speed 1.8 X
Range quality 99.9 %
Test CRC E186616E
Copy CRC E186616E
Copy OK
No errors occurred
AccurateRip summary
Track 1 accurately ripped (confidence 1) [4907D23F] (AR v1)
Track 2 accurately ripped (confidence 2) [6F40697F] (AR v1)
Track 3 accurately ripped (confidence 2) [13015FEA] (AR v1)
Track 4 accurately ripped (confidence 2) [D639C6A8] (AR v1)
Track 5 accurately ripped (confidence 2) [E50FF1C0] (AR v1)
Track 6 accurately ripped (confidence 2) [7C0E2FD9] (AR v1)
Track 7 accurately ripped (confidence 2) [627C64C1] (AR v1)
All tracks accurately ripped
End of status report
---- CUETools DB Plugin V2.1.3
[CTDB TOCID: zNiPHjkVhCOy.KxY228PFh68nV4-] disk not present in database, Submit result: zNiPHjkVhCOy.KxY228PFh68nV4- has been uploaded
==== Log checksum 70CFFC030C70805A9270C08BEC0332BF8D878FAFDDD648E35EA6880BCC08AA8A ====

CD3

Exact Audio Copy V1.0 beta 3 from 29. August 2011
EAC extraction logfile from 29. November 2014, 12:38
Wagner / Tannhäuser, Wallberg CD3
Used drive : TSSTcorpCDDVDW SE-208AB Adapter: 1 ID: 0
Read mode : Secure
Utilize accurate stream : Yes
Defeat audio cache : Yes
Make use of C2 pointers : No
Read offset correction : 6
Overread into Lead-In and Lead-Out : No
Fill up missing offset samples with silence : Yes
Delete leading and trailing silent blocks : No
Null samples used in CRC calculations : Yes
Used interface : Native Win32 interface for Win NT & 2000
Used output format : Monkey's Audio Lossless Encoder
Selected bitrate : High Lossless Compression
Quality : High
Add ID3 tag : Yes
Command line compressor : C:\Program Files (x86)\Exact Audio Copy\MAC\MAC.exe
TOC of the extracted CD
Track | Start | Length | Start sector | End sector
---------------------------------------------------------
1 | 0:00.00 | 7:25.70 | 0 | 33444
2 | 7:25.70 | 2:25.72 | 33445 | 44391
3 | 9:51.67 | 4:12.09 | 44392 | 63300
4 | 14:04.01 | 8:41.70 | 63301 | 102445
5 | 22:45.71 | 4:04.66 | 102446 | 120811
6 | 26:50.62 | 3:27.63 | 120812 | 136399
7 | 30:18.50 | 10:02.00 | 136400 | 181549
8 | 40:20.50 | 1:45.63 | 181550 | 189487
9 | 42:06.38 | 4:56.66 | 189488 | 211753
Range status and errors
Selected range
Filename D:\EAC\Wagner - Tannhäuser, Wallberg CD3.wav
Peak level 91.3 %
Extraction speed 1.8 X
Range quality 100.0 %
Test CRC CBB91DC4
Copy CRC CBB91DC4
Copy OK
No errors occurred
AccurateRip summary
Track 1 accurately ripped (confidence 2) [D8FB3E8D] (AR v1)
Track 2 accurately ripped (confidence 2) [FC709549] (AR v1)
Track 3 accurately ripped (confidence 2) [E3C45C65] (AR v1)
Track 4 accurately ripped (confidence 2) [AD2F01CF] (AR v1)
Track 5 accurately ripped (confidence 2) [D64ECFF2] (AR v1)
Track 6 accurately ripped (confidence 2) [27D3F0E6] (AR v1)
Track 7 accurately ripped (confidence 2) [1D66C233] (AR v1)
Track 8 accurately ripped (confidence 2) [A126E015] (AR v1)
Track 9 accurately ripped (confidence 2) [BD33AB6F] (AR v1)
All tracks accurately ripped
End of status report
---- CUETools DB Plugin V2.1.3
[CTDB TOCID: 7o1EItclUaNTFAfpzOPe_6362fA-] disk not present in database, Submit result: 7o1EItclUaNTFAfpzOPe_6362fA- has been uploaded
==== Log checksum 7B81A472DA7681032C358C2C169C4BCC64D25BB685E4018C2BA35174FC4588A0 ====

Содержание индексной карты (.CUE)

CD1

REM GENRE Opera
REM DATE 1969
REM DISCID 540FA106
REM COMMENT "ExactAudioCopy v1.0b3"
PERFORMER "Wagner"
TITLE "Tannhäuser, Wallberg CD1"
FILE "Wagner - Tannhäuser, Wallberg CD1.ape" WAVE
TRACK 01 AUDIO
TITLE "Vorspiel"
PERFORMER "Wagner"
INDEX 01 00:00:00
TRACK 02 AUDIO
TITLE "Akt 1 - Szene 1 - (Venusberg)"
PERFORMER "Wagner"
INDEX 01 14:08:05
TRACK 03 AUDIO
TITLE "Akt 1 - Szene 1 - Naht euch dem Strande!"
PERFORMER "Wagner"
INDEX 01 15:40:59
TRACK 04 AUDIO
TITLE "Akt 1 - Szene 2 - Geliebter, sag', wo weilt dein Sinn"
PERFORMER "Wagner"
INDEX 01 30:52:51
TRACK 05 AUDIO
TITLE "Akt 1 - Szene 3 - Frau Holda kam aus dem Berg hervor"
PERFORMER "Wagner"
INDEX 01 47:53:01
TRACK 06 AUDIO
TITLE "Akt 1 - Szene 4 - Wer ist der dort in brünstigem Gebete"
PERFORMER "Wagner"
INDEX 01 56:45:38

CD2

REM GENRE Opera
REM DATE 1969
REM DISCID 560DBA07
REM COMMENT "ExactAudioCopy v1.0b3"
PERFORMER "Wagner"
TITLE "Tannhäuser, Wallberg CD2"
FILE "Wagner - Tannhäuser, Wallberg CD2.ape" WAVE
TRACK 01 AUDIO
TITLE "Akt 2 - Szene 1 - Vorspiel"
PERFORMER "Wagner"
INDEX 01 00:00:00
TRACK 02 AUDIO
TITLE "Akt 2 - Szene 1 - Dich, teure Halle, grüß ich wieder"
PERFORMER "Wagner"
INDEX 01 01:52:25
TRACK 03 AUDIO
TITLE "Akt 2 - Szene 2 - Dort ist sie, nahe dich ihr ungestört!"
PERFORMER "Wagner"
INDEX 01 04:53:69
TRACK 04 AUDIO
TITLE "Akt 2 - Szene 3 - Dich treff ich hier in dieser Halle"
PERFORMER "Wagner"
INDEX 01 14:06:12
TRACK 05 AUDIO
TITLE "Akt 2 - Szene 4 - Zwischenspiel"
PERFORMER "Wagner"
INDEX 01 17:34:60
TRACK 06 AUDIO
TITLE "Akt 2 - Szene 4 - Freudig begrüßen wir die edle Halle"
PERFORMER "Wagner"
INDEX 01 20:24:40
TRACK 07 AUDIO
TITLE "Akt 2 - Szene 4 - Sängerkrieg - Blick ich umher in diesem edlen Kreise"
PERFORMER "Wagner"
INDEX 01 30:44:50

CD3

REM GENRE Opera
REM DATE 1969
REM DISCID 750B0709
REM COMMENT "ExactAudioCopy v1.0b3"
PERFORMER "Wagner"
TITLE "Tannhäuser, Wallberg CD3"
FILE "Wagner - Tannhäuser, Wallberg CD3.ape" WAVE
TRACK 01 AUDIO
TITLE "Akt 3 - Vorspiel (Tannhäusers Pilgerfahrt)"
PERFORMER "Wagner"
INDEX 01 00:00:00
TRACK 02 AUDIO
TITLE "Akt 3 - Szene 1 - Wohl wußt' ich hier sie im Gebet zu finden"
PERFORMER "Wagner"
INDEX 01 07:25:70
TRACK 03 AUDIO
TITLE "Akt 3 - Szene 1 - Pilgerchor"
PERFORMER "Wagner"
INDEX 01 09:51:67
TRACK 04 AUDIO
TITLE "Akt 3 - Szene 1 - Allmächt'ge Jungfrau! Hör mein Flehen!"
PERFORMER "Wagner"
INDEX 01 14:04:01
TRACK 05 AUDIO
TITLE "Akt 3 - Szene 1 - Wie Todesahnung Dämmrung deckt die Lande"
PERFORMER "Wagner"
INDEX 01 22:45:71
TRACK 06 AUDIO
TITLE "Akt 3 - Szene 3 - Ich hörte Harfenschlag, wie klang er traurig!"
PERFORMER "Wagner"
INDEX 01 26:50:62
TRACK 07 AUDIO
TITLE "Akt 3 - Szene 3 - Inbrunst im Herzen"
PERFORMER "Wagner"
INDEX 01 30:18:50
TRACK 08 AUDIO
TITLE "Akt 3 - Szene 3 - Willkommen, ungetreuer Mann"
PERFORMER "Wagner"
INDEX 01 40:20:50
TRACK 09 AUDIO
TITLE "Akt 3 - Szene 3 - Der Seele Heil, die nun entflohn"
PERFORMER "Wagner"
INDEX 01 42:06:38



Показать сообщения:    

Текущее время: 09-Дек 12:43

Часовой пояс: UTC + 3


Вы не можете начинать темы
Вы не можете отвечать на сообщения
Вы не можете редактировать свои сообщения
Вы не можете удалять свои сообщения
Вы не можете голосовать в опросах
Вы не можете прикреплять файлы к сообщениям
Вы не можете скачивать файлы