Logan Christopher - Ultimate Recovery Formula [2014, фитнес, DVDRip, ENG] (Видеоурок)

DL-List and Torrent activity [Update пиров]
Size:  325 MB   |    Registered:  7 months 8 days   |    Completed:  0 times

Seeder not seen: Never

Leechers:  3  [  0 KB/s  ]   Show peers in full details


Logan Christopher - Ultimate Recovery Formula
Страна: США
Тематика: фитнес
Тип раздаваемого материала: Видеоурок
Продолжительность: 00:50:22
Год выпуска: 2014
Язык: Английский
Перевод: Отсутствует
Описание: Inside you'll find download information for 85 minutes worth of training video and the Electric Hypnosis Recovery audio.
Your Training Can be Perfect But Without Excellent Recovery You Have Nothing!!!
It’s like I had my Batteries Plugged In and was Being Recharged 100%...
I was on the table on the receiving end of a particular “energy” drill at a recent certification I was attending. Flashing through my mind was images of strength, of me hitting new moves and weights easily.
The accompanying feeling was one of POWER and STRENGTH.
Exercise physiologists will tell you that exercise doesn’t just tax the muscles but the Central Nervous System (CNS). When this is drained you can kiss your strength goodbye.
I had no clue this would happen. But after that one drill I felt More Alive than I had in awhile. But was I stronger? I had to put it to the test...
Since that occurred I’ve played around with this technique and others in more depth. I’ve truly come up with the Ultimate Recovery Formula.
I think back to hearing legendary wrestler Dan Gable state, “You have to work as hard at recovery as you do at training.”
And here I had stumbled on a secret method to do exactly that...
The problem was this method took time and a partner in order to do it. So I played with the formula and came up with something possibly even better. More on that in a little bit. First...
Your Recovery Foundation - 7 Part Video Series Before I get to the advanced stuff it’s important you know, and practice, the basics. If you’ve been training for some time most of this won’t be groundbreaking information to you. Still there are things that most people don’t know like the effects of earthing as it relates to recovery. This 7 part video series covers everything I know on the subject.
Systems of Recovery
Training Effects
Training Boosters
Nutrition Boosters
Lifestyle and Other Boosters
Mental and Energy Boosters
That last section is where it gets interesting. It’s an area that no one else is talking about.
8 Minutes to Complete Recovery!?!
I’ve combined my background in hypnosis and energy together into one powerful audio track.
The special breathing pattern with visualization hooks up several different energy systems in the body. (Energies which may become disorganized during a workout.)
A number of the patterns were modeled after the man who was responsible for having hypnosis accepted by the American Medical Association, Milton Erickson.
These sink deep into the subconscious mind, the part of you that controls autonomic functions of the body like blood flow, assimilation of nutrition and anything else related to recovery. This means you can recover faster and better than you would otherwise.
Once I have finished my workout I grab my iPhone which has the MP3 loaded onto it. I lie down and start it playing. Less than 8 minutes later I get up recharged and revitalized.
What happens?
Less Muscular Soreness! Feeling More Ready to go the Next Day which means More and Bigger PR’s!
It’s short because I know everyone is busy. Yet, lots can be accomplished in a short time.
Качество: DVDRip
Формат: MP4
Видео кодек: H.264
Аудио кодек: AAC
Видео: AVC at 509 Kbps 720 x 480 (1.500) at 29.970 fps
Аудио: AAC at 116 Kbps 2 channels, 44.1 KHz



Complete name : Logan Christopher - Ultimate Recovery Formula\Recovery4-TrainingBoost.mp4
Format : MPEG-4
Format profile : Base Media / Version 2
Codec ID : mp42
File size : 61.7 MiB
Duration : 13mn 50s
Overall bit rate : 623 Kbps
Encoded date : UTC 2013-05-07 19:35:33
Tagged date : UTC 2013-05-07 19:35:41
Writing application : mp4creator 1.4.4
ID : 1
Format : AVC
Format/Info : Advanced Video Codec
Format profile : Baseline@L3.0
Format settings, CABAC : No
Format settings, ReFrames : 2 frames
Codec ID : avc1
Codec ID/Info : Advanced Video Coding
Duration : 13mn 50s
Bit rate mode : Variable
Bit rate : 506 Kbps
Width : 720 pixels
Height : 480 pixels
Display aspect ratio : 3:2
Frame rate mode : Variable
Frame rate : 29.970 fps
Minimum frame rate : 29.960 fps
Maximum frame rate : 29.970 fps
Standard : NTSC
Color space : YUV
Chroma subsampling : 4:2:0
Bit depth : 8 bits
Scan type : Progressive
Bits/(Pixel*Frame) : 0.049
Stream size : 50.1 MiB (81%)
Language : English
Encoded date : UTC 2013-05-07 19:35:33
Tagged date : UTC 2013-05-07 19:35:39
ID : 2
Format : AAC
Format/Info : Advanced Audio Codec
Format profile : LC
Codec ID : 40
Duration : 13mn 49s
Bit rate mode : Variable
Bit rate : 115 Kbps
Maximum bit rate : 271 Kbps
Channel(s) : 2 channels
Channel positions : Front: L R
Sampling rate : 44.1 KHz
Compression mode : Lossy
Stream size : 11.3 MiB (18%)
Language : English
Encoded date : UTC 2013-05-07 19:35:41
Tagged date : UTC 2013-05-07 19:35:41
Torrent: Registered [ 2016-03-19 00:03 ] · 776DA47E8AFA1B517F9F96376C9005E8A33F470C

Download .torrent


14 KB

Status: checked
Completed: 0 times
Size: 325 MB

Quick Reply


Heads necessary to send messages to enable JavaScript
Display posts:    

Current time is: 27-Oct 04:03

All times are UTC + 3

You can post new topics in this forum
You can reply to topics in this forum
You cannot edit your posts in this forum
You cannot delete your posts in this forum
You cannot vote in polls in this forum
You cannot attach files in this forum
You can download files in this forum