(Opera)П.И.Чайковский - Евгений Онегин / P.I.Tchaikovsky - Eugene Onegin (Kubiak, Hamari, Reynolds, Weikl, Burrows, Ghiaurov (Гяуров), Senechal,Orchestra of the Opera House, Covent Garden, Georg Solti) - 1987, FLAC (image+.cue) lossless


 

[Цитировать]

П.И.Чайковский - Евгений Онегин (на русском языке)Orchestra of the Opera House, Covent Garden • Georg Solti Жанр: Opera
Страна-производитель диска: Germany
Год издания диска: 1987
Издатель (лейбл): Decca
Номер по каталогу: 417 415-2
Дата записи: 1974
Аудиокодек: FLAC
Тип рипа: image+.cue
Битрейт аудио: lossless
Продолжительность: 2:23:19
Источник: скачано с odeonmusic
Наличие сканов в содержимом раздачи: да (частично)
Исполнители:
Ольга (контральто) - Julia Hamari
Татьяна (сопрано) - Teresa Kubiak
Ларина, помещица (меццо-сопрано) - Anna Reynolds
Евгений Онегин (баритон) - Bernd Weikl
Ленский (тенор) - Stuart Burrows
Князь Гремин (бас) - Nicolai Ghiaurov
Трике (тенор) - Michel Sénéchal
The John Alldis Choir
Orchestra of the Opera House, Covent Garden

Дирижер - Sir Georg Solti

Треклист

CD 1
1 Act 1: Introduction 2:21
2 "Slikhali l vi za roschei glas nochnai" 5:39
3 "Bolyat moyi skori nozhenki" 2:42
4 "Uzh kak po mostu, mostochku" 2:13
5 "Kak ya lyublyu pod zvuki pesen etikh" 0:45
6 "Uzh kak po mostu, mostochku" 2:47
7 "Nu ti, moya vostrushka" 3:12
8 "Mesdames! Ya na sebya vzyal smyelost" 1:52
9 "Skazhi, kotoraya Tatyana?" 1:46
10 "Kak shchastliv, kak shchastliv ya!" 2:25
11 "Ya lyublyu vas" 3:25
12 "A, vot i vi!" 2:35
13 "Nu, zaboltalas ya!" 7:43
14 "Puskai pogibnu ya, no pryezhde" 13:37
15 "Akh, noch minula" 6:28
16 "Dyevitsi-krasavtsi" 3:00
17 "Zdyes on, zdyes on, Yevgeni!" 4:03
18 "Kogda bi zhizn domashnim krugom" 4:08
CD 2
1 Act 2: Waltz 1:49
2 "Vot tak syurpriz!" 6:27
3 "Uzhel ya zasluzhil ot vas nasmyeshku etu?" 3:24
4 "A cette fête convié" 3:07
5 "Messieurs, mesdames, mesta zanyat izvolte" 1:18
6 "Ti ne tantsuyesh, Lenski?" 3:21
7 "V vashem dome! V vashem dome!" 4:42
8 "Nu, shto zhe?" 3:13
9 "Kuda, kuda, kuda vi udalilis" 6:01
10 "A, vot oni!" 5:47
11 Act 3: Polonaise 4:31
12 "I zdyes mnye skuchno!" 3:55
13 "Knyaginya Gremina! Smotrite!" 2:13
14 "Lyubvi vsye vozrasti pokorni" 5:37
15 "Itak, poidyom, tebya predstavlyu ya" 1:13
16 "Uzhel ta samaya Tatyana" 2:29
17 "O! Kak mnye tyazhelo!" 3:45
18 "Onegin! Ya togda molozhe" 9:30

Лог создания рипа

Лог создания рипа CD1

Exact Audio Copy V1.0 beta 3 from 29. August 2011
EAC extraction logfile from 2. October 2012, 17:45
Sir Georg Solti / Tchaikovsky - Eugene Onegin - Solti (Disc 1)
Used drive : TSSTcorpCDDVDW SH-222BB Adapter: 2 ID: 1
Read mode : Secure
Utilize accurate stream : Yes
Defeat audio cache : Yes
Make use of C2 pointers : No
Read offset correction : 6
Overread into Lead-In and Lead-Out : No
Fill up missing offset samples with silence : Yes
Delete leading and trailing silent blocks : No
Null samples used in CRC calculations : Yes
Used interface : Native Win32 interface for Win NT & 2000
Used output format : User Defined Encoder
Selected bitrate : 1024 kBit/s
Quality : High
Add ID3 tag : No
Command line compressor : C:\Program Files\Exact Audio Copy\Flac\flac.exe
Additional command line options : -8 -V -T "TITLE=%title%" -T "ARTIST=%artist%" -T "ALBUMARTIST=%albumartist%" -T "ALBUM=%albumtitle%" -T "DATE=%year%" -T "TRACKNUMBER=%tracknr%" -T "TRACKTOTAL=%numtracks%" -T "GENRE=%genre%" -T "COMMENT=%comment%" -T "PERFORMER=%albuminterpret%" -T "COMPOSER=%composer%" %source% -o %dest%
TOC of the extracted CD
Track | Start | Length | Start sector | End sector
---------------------------------------------------------
1 | 0:00.32 | 2:21.50 | 32 | 10656
2 | 2:22.07 | 5:39.05 | 10657 | 36086
3 | 8:01.12 | 2:42.20 | 36087 | 48256
4 | 10:43.32 | 2:13.13 | 48257 | 58244
5 | 12:56.45 | 0:45.50 | 58245 | 61669
6 | 13:42.20 | 2:47.35 | 61670 | 74229
7 | 16:29.55 | 3:12.42 | 74230 | 88671
8 | 19:42.22 | 1:52.00 | 88672 | 97071
9 | 21:34.22 | 1:46.43 | 97072 | 105064
10 | 23:20.65 | 2:25.47 | 105065 | 115986
11 | 25:46.37 | 3:25.40 | 115987 | 131401
12 | 29:12.02 | 2:35.38 | 131402 | 143064
13 | 31:47.40 | 7:43.32 | 143065 | 177821
14 | 39:30.72 | 13:37.40 | 177822 | 239136
15 | 53:08.37 | 6:28.68 | 239137 | 268304
16 | 59:37.30 | 3:00.70 | 268305 | 281874
17 | 62:38.25 | 4:03.15 | 281875 | 300114
18 | 66:41.40 | 4:08.10 | 300115 | 318724
Range status and errors
Selected range
Filename F:\Ripped general\[1158] Tchaikovsky - Eugene Onegin - Solti\cd1\Tchaikovsky - Eugene Onegin - Solti (Disc 1).wav
Peak level 96.4 %
Extraction speed 2.3 X
Range quality 100.0 %
Test CRC 2C54305E
Copy CRC 2C54305E
Copy OK
No errors occurred
AccurateRip summary
Track 1 accurately ripped (confidence 7) [0586B6E4] (AR v1)
Track 2 accurately ripped (confidence 7) [AA157B33] (AR v1)
Track 3 accurately ripped (confidence 7) [D03C7021] (AR v1)
Track 4 accurately ripped (confidence 7) [8092CD48] (AR v1)
Track 5 accurately ripped (confidence 6) [6DEFE05A] (AR v1)
Track 6 accurately ripped (confidence 6) [8230D667] (AR v1)
Track 7 accurately ripped (confidence 7) [62CC1BCD] (AR v1)
Track 8 accurately ripped (confidence 7) [2F46B50A] (AR v1)
Track 9 accurately ripped (confidence 7) [C259FF5D] (AR v1)
Track 10 accurately ripped (confidence 6) [93CCC1B2] (AR v1)
Track 11 accurately ripped (confidence 7) [C42DA12B] (AR v1)
Track 12 accurately ripped (confidence 7) [B7F5CC39] (AR v1)
Track 13 accurately ripped (confidence 6) [54CD8F59] (AR v1)
Track 14 accurately ripped (confidence 7) [297E21FE] (AR v1)
Track 15 accurately ripped (confidence 7) [E8918DEF] (AR v1)
Track 16 accurately ripped (confidence 7) [5799CD0C] (AR v1)
Track 17 accurately ripped (confidence 7) [590D796E] (AR v1)
Track 18 accurately ripped (confidence 7) [99B6117E] (AR v1)
All tracks accurately ripped
End of status report

Лог создания рипа CD2

Exact Audio Copy V1.0 beta 3 from 29. August 2011
EAC extraction logfile from 2. October 2012, 18:53
Sir Georg Solti / Tchaikovsky - Eugene Onegin - Solti (Disc 2)
Used drive : TSSTcorpCDDVDW SH-222BB Adapter: 2 ID: 1
Read mode : Secure
Utilize accurate stream : Yes
Defeat audio cache : Yes
Make use of C2 pointers : No
Read offset correction : 6
Overread into Lead-In and Lead-Out : No
Fill up missing offset samples with silence : Yes
Delete leading and trailing silent blocks : No
Null samples used in CRC calculations : Yes
Used interface : Native Win32 interface for Win NT & 2000
Used output format : User Defined Encoder
Selected bitrate : 1024 kBit/s
Quality : High
Add ID3 tag : No
Command line compressor : C:\Program Files\Exact Audio Copy\Flac\flac.exe
Additional command line options : -8 -V -T "TITLE=%title%" -T "ARTIST=%artist%" -T "ALBUMARTIST=%albumartist%" -T "ALBUM=%albumtitle%" -T "DATE=%year%" -T "TRACKNUMBER=%tracknr%" -T "TRACKTOTAL=%numtracks%" -T "GENRE=%genre%" -T "COMMENT=%comment%" -T "PERFORMER=%albuminterpret%" -T "COMPOSER=%composer%" %source% -o %dest%
TOC of the extracted CD
Track | Start | Length | Start sector | End sector
---------------------------------------------------------
1 | 0:00.32 | 1:49.55 | 32 | 8261
2 | 1:50.12 | 6:27.70 | 8262 | 37356
3 | 8:18.07 | 3:24.28 | 37357 | 52684
4 | 11:42.35 | 3:07.05 | 52685 | 66714
5 | 14:49.40 | 1:18.60 | 66715 | 72624
6 | 16:08.25 | 3:21.07 | 72625 | 87706
7 | 19:29.32 | 4:42.23 | 87707 | 108879
8 | 24:11.55 | 3:13.72 | 108880 | 123426
9 | 27:25.52 | 6:01.13 | 123427 | 150514
10 | 33:26.65 | 5:47.12 | 150515 | 176551
11 | 39:14.02 | 4:31.45 | 176552 | 196921
12 | 43:45.47 | 3:55.35 | 196922 | 214581
13 | 47:41.07 | 2:13.33 | 214582 | 224589
14 | 49:54.40 | 5:37.02 | 224590 | 249866
15 | 55:31.42 | 1:13.40 | 249867 | 255381
16 | 56:45.07 | 2:29.40 | 255382 | 266596
17 | 59:14.47 | 3:45.43 | 266597 | 283514
18 | 63:00.15 | 9:30.55 | 283515 | 326319
Range status and errors
Selected range
Filename F:\Ripped general\[1159] Tchaikovsky - Eugene Onegin - Solti\cd2\Tchaikovsky - Eugene Onegin - Solti (Disc 2).wav
Peak level 96.7 %
Extraction speed 2.3 X
Range quality 100.0 %
Test CRC 0B797D61
Copy CRC 0B797D61
Copy OK
No errors occurred
AccurateRip summary
Track 1 accurately ripped (confidence 7) [083CF84F] (AR v1)
Track 2 accurately ripped (confidence 7) [A0586D5E] (AR v1)
Track 3 accurately ripped (confidence 7) [41874EF2] (AR v1)
Track 4 accurately ripped (confidence 6) [B80E02AE] (AR v1)
Track 5 accurately ripped (confidence 7) [3AE59B3A] (AR v1)
Track 6 accurately ripped (confidence 7) [2009310E] (AR v1)
Track 7 accurately ripped (confidence 7) [06A833B9] (AR v1)
Track 8 accurately ripped (confidence 7) [CB70B3A5] (AR v1)
Track 9 accurately ripped (confidence 7) [DB10D330] (AR v1)
Track 10 accurately ripped (confidence 7) [894F86D8] (AR v1)
Track 11 accurately ripped (confidence 7) [92576BC9] (AR v1)
Track 12 accurately ripped (confidence 7) [564F6A41] (AR v1)
Track 13 accurately ripped (confidence 7) [0951A27E] (AR v1)
Track 14 accurately ripped (confidence 7) [A14B4865] (AR v1)
Track 15 accurately ripped (confidence 7) [DFCCC0CA] (AR v1)
Track 16 accurately ripped (confidence 7) [8E1FDD7A] (AR v1)
Track 17 accurately ripped (confidence 7) [B803EF4F] (AR v1)
Track 18 accurately ripped (confidence 7) [2E0972ED] (AR v1)
All tracks accurately ripped
End of status report

Лог проверки качества

Лог проверки качества CD1

AUDIOCHECKER v2.0 beta (build 457) - by Dester - opdester@freemail.hu
~~~~~~~~~~~~~~~~~~~~~~~~~~~~~~~~~~
-=== DO NOT EDIT THIS FILE! ===-
Path: ...\CD1
1 -=- Tchaikovsky - Eugene Onegin - Solti (Disc 1).flac -=- CDDA (100%)
57933028

Лог проверки качества CD1

AUDIOCHECKER v2.0 beta (build 457) - by Dester - opdester@freemail.hu
~~~~~~~~~~~~~~~~~~~~~~~~~~~~~~~~~~
-=== DO NOT EDIT THIS FILE! ===-
Path: ...\CD2
1 -=- Tchaikovsky - Eugene Onegin - Solti (Disc 2).flac -=- CDDA (100%)
61799652
Видеоверсия оперы-



Показать сообщения:    

Текущее время: 10-Дек 06:09

Часовой пояс: UTC + 3


Вы не можете начинать темы
Вы не можете отвечать на сообщения
Вы не можете редактировать свои сообщения
Вы не можете удалять свои сообщения
Вы не можете голосовать в опросах
Вы не можете прикреплять файлы к сообщениям
Вы не можете скачивать файлы