(Classical) Tallinn Music High School - Future Filled With Music (Vivaldi, Eespere, Eller, Korvits, Liszt, Sibelius, Reinvere, Britten, Балакирев, Чайковский, Rahvaviis, Siimer, Hamilton, Bassett) - 2001, TAK (tracks+.cue) lossless


 

[Цитировать]

Performed by students of
Tallinn Music High School
Future Filled With Music
Жанр: Classical
Страна-производитель диска: Estonia
Год издания диска: 2001
Издатель (лейбл): Estonian Radio \ TMKK
Номер по каталогу: TMKK 001
Дата записи: 2000-2001
Аудиокодек: TAK
Тип рипа: tracks+.cue
Битрейт аудио: lossless
Продолжительность: 01:10:22
Источник: собственный рип
Наличие сканов в содержимом раздачи: да (PNG 600 dpi)-Треклист:
01. Antonio Vivaldi - Kontsert C-duur RV 534 I osa (02:46)
/Ele Raik, Ahto Normet (oboe), Sümfooniaorkestri keelpillirühm T. Kapteni juhatusel\
02. Rene Eespere - Glorificatio (06:08)
/Kaia Urb (sopran), Kammerkoor, Sümfooniaorkester T. Kapteni juhatusel\
03. Heino Eller - Männid (03:50)
/Ivi Ots (viiul)Signe Hiis (klaver)\
04. Tõnu Kõrvits - Rannak öös (02:11)
/Inga maasing, Anna Kelder, Aleksandra vaher (flöödid)\
05. Ferenc Liszt - Transtsendentne etuud nr. 12 ''Tuisk'' (05:30)
/Mihkel Poll (klaver)\
06. Jean Sibelius - Romanss op. 78 nr. 2 (02:52)
/Juta Õunapuu (viiul), Kai Õunapuu (klaver)\
07. Jüri Reinvere - Water Dance (03:37)
/Liis Jürgens (harf), Anna Kelder (flööt)\
08. Ferenc Liszt - Mefisto valss (11:06)
/Sten Lassmann (klaver)\
09. Benjamin Britten - ''Paan'' tsuklist 6 metamorfoosi I (01:56)
/Ele Raik (oboe)\
10. Mili Balakirev - Islamei (08:09)
/Hando Nahkur (klaver)\
11. Pjotr Tšaikovski - Meloodia op. 42 nr. 3 (03:18)
/Marge Uus (viiul), Signe Hiis (klaver)\
12. Pjotr Tšaikovski - Naapoli tants (01:16)
/Jaan Ots (trompet), Meeli Ots (klaver)\
13. Soome Rahvaviis - Savitaipale polka (03:57)
/Neeme Ots (flüügelhorn), Puhkpillisümfoonikud A. Otsa juhatusel\
14. Mart Siimer - Talupoja laul (03:05)
/Tekst H. Runnel/Teele Utt (vokaal), Laur Eensalu, Britta Kongo, Silver Laas (viiulid), M. Siimer (klaver), Lastekoor I. Kõrvitsa juhatusel \
15. Eoin Hamilton - Tantsusüit (09:05)
/Laste keelpilliorkester T. Peäske juhatusel\
16. Leslie Bassett - Saluut (01:29)
/Trompetiansambel\

Лог создания рипа

Exact Audio Copy V1.0 beta 3 from 29. August 2011
EAC extraction logfile from 15. December 2014, 21:08
Tallinn Music High School / Future Filled With Music
Used drive : SlimtypeDVD A DS8A5SH Adapter: 0 ID: 1
Read mode : Secure
Utilize accurate stream : Yes
Defeat audio cache : Yes
Make use of C2 pointers : No
Read offset correction : 6
Overread into Lead-In and Lead-Out : No
Fill up missing offset samples with silence : Yes
Delete leading and trailing silent blocks : No
Null samples used in CRC calculations : Yes
Used interface : Native Win32 interface for Win NT & 2000
Gap handling : Appended to previous track
Used output format : User Defined Encoder
Selected bitrate : 768 kBit/s
Quality : High
Add ID3 tag : No
Command line compressor : C:\wapet.exe
Additional command line options : %dest% -t "PUBLISHER=Estonian Radio \ TMKK" -t "CATNUM=TMKK 001" -t "DISCID=EB107E10" -t "Track=%tracknr%" -t "Artist=%artist%" -t "Title=%title%" -t "Album=%albumtitle%" -t "Album Artist=%albumartist%" -t "Year=%year%" -t "Genre=%genre%" -t "Totaltracks=%numtracks%" -t "Comment=%comment%" "C:\TAKc - 2013.exe" -e -p3 %source% %dest%
TOC of the extracted CD
Track | Start | Length | Start sector | End sector
---------------------------------------------------------
1 | 0:00.00 | 2:46.65 | 0 | 12514
2 | 2:46.65 | 6:08.44 | 12515 | 40158
3 | 8:55.34 | 3:50.04 | 40159 | 57412
4 | 12:45.38 | 2:11.46 | 57413 | 67283
5 | 14:57.09 | 5:30.04 | 67284 | 92037
6 | 20:27.13 | 2:52.23 | 92038 | 104960
7 | 23:19.36 | 3:37.12 | 104961 | 121247
8 | 26:56.48 | 11:06.69 | 121248 | 171266
9 | 38:03.42 | 1:56.32 | 171267 | 179998
10 | 39:59.74 | 8:09.72 | 179999 | 216745
11 | 48:09.71 | 3:18.37 | 216746 | 231632
12 | 51:28.33 | 1:16.17 | 231633 | 237349
13 | 52:44.50 | 3:57.58 | 237350 | 255182
14 | 56:42.33 | 3:05.03 | 255183 | 269060
15 | 59:47.36 | 9:05.71 | 269061 | 310006
16 | 68:53.32 | 1:29.10 | 310007 | 316691
Track 1
Filename D:\!0\Tallinn Music High School -(2001)- Future Filled With Music\01. Antonio Vivaldi - Kontsert C-duur RV 534 I osa.wav
Pre-gap length 0:00:02.00
Peak level 85.2 %
Extraction speed 1.1 X
Track quality 100.0 %
Test CRC 4F4C2D3B
Copy CRC 4F4C2D3B
Accurately ripped (confidence 1) [79D98327] (AR v2)
Copy OK
Track 2
Filename D:\!0\Tallinn Music High School -(2001)- Future Filled With Music\02. Rene Eespere - Glorificatio.wav
Peak level 96.5 %
Extraction speed 1.3 X
Track quality 100.0 %
Test CRC 6B909D91
Copy CRC 6B909D91
Accurately ripped (confidence 1) [0560ABDC] (AR v2)
Copy OK
Track 3
Filename D:\!0\Tallinn Music High School -(2001)- Future Filled With Music\03. Heino Eller - Männid.wav
Peak level 92.8 %
Extraction speed 1.2 X
Track quality 99.9 %
Test CRC 7F01F09A
Copy CRC 7F01F09A
Accurately ripped (confidence 1) [C1DB356E] (AR v2)
Copy OK
Track 4
Filename D:\!0\Tallinn Music High School -(2001)- Future Filled With Music\04. Tõnu Kõrvits - Rannak öös.wav
Peak level 53.4 %
Extraction speed 1.3 X
Track quality 100.0 %
Test CRC 8F17F7A7
Copy CRC 8F17F7A7
Accurately ripped (confidence 1) [FFC050CD] (AR v2)
Copy OK
Track 5
Filename D:\!0\Tallinn Music High School -(2001)- Future Filled With Music\05. Ferenc Liszt - Transtsendentne etuud nr. 12 ''Tuisk''.wav
Peak level 96.5 %
Extraction speed 1.7 X
Track quality 100.0 %
Test CRC 0FA2359B
Copy CRC 0FA2359B
Accurately ripped (confidence 1) [68F6BFB9] (AR v2)
Copy OK
Track 6
Filename D:\!0\Tallinn Music High School -(2001)- Future Filled With Music\06. Jean Sibelius - Romanss op. 78 nr. 2.wav
Peak level 91.7 %
Extraction speed 1.3 X
Track quality 99.9 %
Test CRC 0FD18550
Copy CRC 0FD18550
Accurately ripped (confidence 1) [3B0EA768] (AR v2)
Copy OK
Track 7
Filename D:\!0\Tallinn Music High School -(2001)- Future Filled With Music\07. Jüri Reinvere - Water Dance.wav
Peak level 65.5 %
Extraction speed 1.7 X
Track quality 100.0 %
Test CRC 42E363E8
Copy CRC 42E363E8
Accurately ripped (confidence 1) [9123CFB0] (AR v2)
Copy OK
Track 8
Filename D:\!0\Tallinn Music High School -(2001)- Future Filled With Music\08. Ferenc Liszt - Mefisto valss.wav
Peak level 83.5 %
Extraction speed 1.0 X
Track quality 100.0 %
Test CRC DD559323
Copy CRC DD559323
Accurately ripped (confidence 1) [872EC252] (AR v2)
Copy OK
Track 9
Filename D:\!0\Tallinn Music High School -(2001)- Future Filled With Music\09. Benjamin Britten - ''Paan'' tsuklist 6 metamorfoosi I.wav
Peak level 45.3 %
Extraction speed 1.7 X
Track quality 100.0 %
Test CRC E09AC204
Copy CRC E09AC204
Accurately ripped (confidence 1) [1969597E] (AR v2)
Copy OK
Track 10
Filename D:\!0\Tallinn Music High School -(2001)- Future Filled With Music\10. Mili Balakirev - Islamei.wav
Peak level 96.5 %
Extraction speed 2.3 X
Track quality 100.0 %
Test CRC AFD37056
Copy CRC AFD37056
Accurately ripped (confidence 1) [C752EDEF] (AR v2)
Copy OK
Track 11
Filename D:\!0\Tallinn Music High School -(2001)- Future Filled With Music\11. Pjotr Tšaikovski - Meloodia op. 42 nr. 3.wav
Peak level 61.4 %
Extraction speed 0.5 X
Track quality 100.0 %
Test CRC E7991C4B
Copy CRC E7991C4B
Accurately ripped (confidence 1) [A3DBC513] (AR v2)
Copy OK
Track 12
Filename D:\!0\Tallinn Music High School -(2001)- Future Filled With Music\12. Pjotr Tšaikovski - Naapoli tants.wav
Peak level 96.2 %
Extraction speed 1.7 X
Track quality 100.0 %
Test CRC B812EF9D
Copy CRC B812EF9D
Accurately ripped (confidence 1) [B395074E] (AR v2)
Copy OK
Track 13
Filename D:\!0\Tallinn Music High School -(2001)- Future Filled With Music\13. Soome Rahvaviis - Savitaipale polka.wav
Peak level 86.0 %
Extraction speed 2.3 X
Track quality 100.0 %
Test CRC 7892A928
Copy CRC 7892A928
Accurately ripped (confidence 1) [F29B6633] (AR v2)
Copy OK
Track 14
Filename D:\!0\Tallinn Music High School -(2001)- Future Filled With Music\14. Mart Siimer - Talupoja laul.wav
Peak level 96.5 %
Extraction speed 2.2 X
Track quality 100.0 %
Test CRC 149E4F66
Copy CRC 149E4F66
Accurately ripped (confidence 1) [948070C2] (AR v2)
Copy OK
Track 15
Filename D:\!0\Tallinn Music High School -(2001)- Future Filled With Music\15. Eoin Hamilton - Tantsusüit.wav
Peak level 96.4 %
Extraction speed 2.6 X
Track quality 100.0 %
Test CRC CB802CD2
Copy CRC CB802CD2
Accurately ripped (confidence 1) [58DAB5A5] (AR v2)
Copy OK
Track 16
Filename D:\!0\Tallinn Music High School -(2001)- Future Filled With Music\16. Leslie Bassett - Saluut.wav
Peak level 96.5 %
Extraction speed 2.0 X
Track quality 100.0 %
Test CRC 74388AA9
Copy CRC 74388AA9
Accurately ripped (confidence 1) [1735D6A2] (AR v2)
Copy OK
All tracks accurately ripped
No errors occurred
End of status report
==== Log checksum 67ACAD7BDCF0A9675A90D7C8EBFDD41840600C845CA3B27848A5194878C5A617 ====

Содержание индексной карты (.CUE)

REM GENRE Classical
REM DATE 2001
REM DISCID EB107E10
REM COMMENT "ExactAudioCopy v1.0b3"
PERFORMER "Tallinn Music High School"
TITLE "Future Filled With Music"
FILE "01 - Kontsert C-duur RV 534 I osa.wav" WAVE
TRACK 01 AUDIO
TITLE "Kontsert C-duur RV 534 I osa"
PERFORMER "Antonio Vivaldi"
INDEX 01 00:00:00
FILE "02 - Glorificatio.wav" WAVE
TRACK 02 AUDIO
TITLE "Glorificatio"
PERFORMER "Rene Eespere"
INDEX 01 00:00:00
FILE "03 - Mannid.wav" WAVE
TRACK 03 AUDIO
TITLE "Mannid"
PERFORMER "Heino Eller"
INDEX 01 00:00:00
FILE "04 - Rannak oos.wav" WAVE
TRACK 04 AUDIO
TITLE "Rannak oos"
PERFORMER "Tonu Korvits"
INDEX 01 00:00:00
FILE "05 - Transtsendentne etuud nr. 12 ''Tuisk''.wav" WAVE
TRACK 05 AUDIO
TITLE "Transtsendentne etuud nr. 12 'Tuisk'"
PERFORMER "Ferenc Liszt"
INDEX 01 00:00:00
FILE "06 - Romanss op. 78 nr. 2.wav" WAVE
TRACK 06 AUDIO
TITLE "Romanss op. 78 nr. 2"
PERFORMER "Jean Sibelius"
INDEX 01 00:00:00
FILE "07 - Water Dance.wav" WAVE
TRACK 07 AUDIO
TITLE "Water Dance"
PERFORMER "Juri Reinvere"
INDEX 01 00:00:00
FILE "08 - Mefisto valss.wav" WAVE
TRACK 08 AUDIO
TITLE "Mefisto valss"
PERFORMER "Ferenc Liszt"
INDEX 01 00:00:00
FILE "09 - ''Paan'' tsuklist 6 metamorfoosi I.wav" WAVE
TRACK 09 AUDIO
TITLE "'Paan' tsuklist 6 metamorfoosi I"
PERFORMER "Benjamin Britten"
INDEX 01 00:00:00
FILE "10 - Islamei.wav" WAVE
TRACK 10 AUDIO
TITLE "Islamei"
PERFORMER "Mili Balakirev"
INDEX 01 00:00:00
FILE "11 - Meloodia op. 42 nr. 3.wav" WAVE
TRACK 11 AUDIO
TITLE "Meloodia op. 42 nr. 3"
PERFORMER "Pjotr Tsaikovski"
INDEX 01 00:00:00
FILE "12 - Naapoli tants.wav" WAVE
TRACK 12 AUDIO
TITLE "Naapoli tants"
PERFORMER "Pjotr Tsaikovski"
INDEX 01 00:00:00
FILE "13 - Savitaipale polka.wav" WAVE
TRACK 13 AUDIO
TITLE "Savitaipale polka"
PERFORMER "Soome Rahvaviis"
INDEX 01 00:00:00
FILE "14 - Talupoja laul.wav" WAVE
TRACK 14 AUDIO
TITLE "Talupoja laul"
PERFORMER "Mart Siimer"
INDEX 01 00:00:00
FILE "15 - Tantsusuit.wav" WAVE
TRACK 15 AUDIO
TITLE "Tantsusuit"
PERFORMER "Eoin Hamilton"
INDEX 01 00:00:00
FILE "16 - Saluut.wav" WAVE
TRACK 16 AUDIO
TITLE "Saluut"
PERFORMER "Leslie Bassett"
INDEX 01 00:00:00

Лог проверки качества

-----------------------
DON'T MODIFY THIS FILE
-----------------------
PERFORMER: auCDtect Task Manager, ver. 1.6.0 RC1 build 1.6.0.1
Copyright (c) 2008-2010 y-soft. All rights reserved
http://y-soft.org
ANALYZER: auCDtect: CD records authenticity detector, version 0.8.2
Copyright (c) 2004 Oleg Berngardt. All rights reserved.
Copyright (c) 2004 Alexander Djourik. All rights reserved.
FILE: 16. Leslie Bassett - Saluut.tak
Size: 6284394 Hash: D34FBD203957A65EC71AEF7F05CE52C2 Accuracy: -m0
Conclusion: CDDA 100%
Signature: 35CE9AE456125E8134040CFCE9447DDE9ED45188
FILE: 15. Eoin Hamilton - Tantsusüit.tak
Size: 47769850 Hash: 0A62F787FBC54035D0ABAEF2A16244F2 Accuracy: -m0
Conclusion: CDDA 100%
Signature: E9E14A76644D5BC797F6B779A693C764C1C3CE7F
FILE: 14. Mart Siimer - Talupoja laul.tak
Size: 15661542 Hash: F9005165F2D91CD4110EE6E54C9B8F2A Accuracy: -m0
Conclusion: CDDA 99%
Signature: BD375E6B41E76A7FF47E8883B6B1B8DE3754EA81
FILE: 13. Soome Rahvaviis - Savitaipale polka.tak
Size: 19748291 Hash: DB743556284B0FD7C1E2C682220ECA4F Accuracy: -m0
Conclusion: CDDA 100%
Signature: A2A35BF7FC598ED36DF7A4AAE3035A5CBB94BD1F
FILE: 12. Pjotr Tšaikovski - Naapoli tants.tak
Size: 4711826 Hash: FB8245BF1F57A8544EFB0E9904FD87D8 Accuracy: -m0
Conclusion: CDDA 100%
Signature: 17416AF39606C5664C77D099B42A7B2A4FB43FCE
FILE: 11. Pjotr Tšaikovski - Meloodia op. 42 nr. 3.tak
Size: 12970440 Hash: 5678FCEDFF676B96B34B0F92CACC932C Accuracy: -m0
Conclusion: CDDA 100%
Signature: 5C963015530A2B1A544474783F4FDE2DEAA69812
FILE: 10. Mili Balakirev - Islamei.tak
Size: 32266122 Hash: 8AB6CD5B482BA2B0C309BAD86752D934 Accuracy: -m0
Conclusion: CDDA 99%
Signature: CB75026896C66D6E685F0DEE1173899569E8F437
FILE: 09. Benjamin Britten - ''Paan'' tsuklist 6 metamorfoosi I.tak
Size: 6877685 Hash: 54026746B03D70E34721CE6B80C7E2DB Accuracy: -m0
Conclusion: CDDA 87%
Signature: 4523EC735381E64BFAF653C8FD52191AB43C920D
FILE: 08. Ferenc Liszt - Mefisto valss.tak
Size: 32322026 Hash: 20463A08F2224D0F5337C1160E491E02 Accuracy: -m0
Conclusion: MPEG 89%
Signature: A9D001DB65BB644E3B71B1F07522F8959A758CC0
FILE: 07. Jüri Reinvere - Water Dance.tak
Size: 13570074 Hash: F9B0F5FB74BBF4600F6428858BB37785 Accuracy: -m0
Conclusion: CDDA 99%
Signature: F7EBA6E74078625C28446B32F626B077B180D439
FILE: 06. Jean Sibelius - Romanss op. 78 nr. 2.tak
Size: 11340457 Hash: 3FF19D3DBDE260B5127E33E77442CD98 Accuracy: -m0
Conclusion: CDDA 100%
Signature: 13C2314AC2537141653FF4D37E9CA448AB9EB890
FILE: 05. Ferenc Liszt - Transtsendentne etuud nr. 12 ''Tuisk''.tak
Size: 20214555 Hash: 479AEFBF7C9CCBAF7AB6001441AA18BA Accuracy: -m0
Conclusion: CDDA 100%
Signature: 30A85025FAF61D2588BDA3920F48C431AEDA9648
FILE: 04. Tõnu Kõrvits - Rannak öös.tak
Size: 8681182 Hash: 446776ECEEAD23150AB89BB7DBCB8D17 Accuracy: -m0
Conclusion: CDDA 100%
Signature: D767F9524E90D1C3117112CC920C8535E999B16A
FILE: 03. Heino Eller - Männid.tak
Size: 14995029 Hash: 4D27631FB6D185E543793A474684B5DF Accuracy: -m0
Conclusion: CDDA 100%
Signature: 5335AF9234339C6B70D8432B8D68308E7F5AF4E0
FILE: 02. Rene Eespere - Glorificatio.tak
Size: 27611614 Hash: 27D99F47AD6E34153DA5D3815F3EB31C Accuracy: -m0
Conclusion: CDDA 100%
Signature: D2E3498AE2934137EB5024B4D725628BDB3DD811
FILE: 01. Antonio Vivaldi - Kontsert C-duur RV 534 I osa.tak
Size: 15344851 Hash: C099CCE15BC4B42DBEC8F8E1FABC3A46 Accuracy: -m0
Conclusion: CDDA 100%
Signature: 1A84A366957005FF7969061D77A48D768349C8F0

Скриншот спектра частот

Доп. инфо

В треках также прописаны тэги:
Издатель – “PUBLISHER”
Номер по каталогу - “CATNUM”

Скриншот активации просмотра (Foobar2000)





Показать сообщения:    

Текущее время: 03-Дек 09:43

Часовой пояс: UTC + 3


Вы не можете начинать темы
Вы не можете отвечать на сообщения
Вы не можете редактировать свои сообщения
Вы не можете удалять свои сообщения
Вы не можете голосовать в опросах
Вы не можете прикреплять файлы к сообщениям
Вы не можете скачивать файлы