(Opera) Georges Bizet - Carmen (Maria Callas, Nicolai Gedda (Гедда), Andrea Guiot, Robert Massard, Jane Berbie, Georges Pretre) - 1991, FLAC (image+.cue) lossless


 

[Цитировать]

Georges Bizet - CarmenMaria Callas • Nicolai Gedda • Georges Pretre Жанр: Opera
Страна-производитель диска: Germany
Год издания диска: 1991
Издатель (лейбл): EMI
Номер по каталогу: CDC 7 54369 2
Дата записи: 1964
Аудиокодек: FLAC
Тип рипа: image+.cue
Битрейт аудио: lossless
Продолжительность: 2:26:24
Источник: скачано с odeonmusic
Наличие сканов в содержимом раздачи: да (частично)
Исполнители:
Carmen - Maria Callas - soprano
Don Jose - Nicolai Gedda - tenor
Micaela - Andrea Guiot - soprano
Escamillo - Robert Massard - baryton
Frasquita - Nadine Sautereau - soprano
Mercedes - Jane Berbie - mezzo-soprano
Morales - Claude Cales - baryton
Zuniga - Jacques Mars - baryton
Conductor - Georges Pretre
Orchestre du Theatre National de I'Opera de Paris
Chorus master - Jean Laforge
Chorus d'Enfants Lean Pesneaud

Треклист

CD 1
1 No. 1, Prelude 2:14
2 Act I, No. 2, "Sur la place, chacun passe" (Soldats) 7:22
3 No. 3, "Avec la garde montante" (Chorus des Gamins) 3:53
4 No. 4a, "La Cloche a sonne, nous des ouvrieres" (Jeunes Gens) 1:13
5 No. 4b, "La voila! Voila la Carmencita!" (Tous) 4:33
6 No. 5, "L'amour est un oiseau rebelle" (Habanera) (Carmen w/Chorus) 4:17
7 No. 6, "Carmen! sur tes pas" (Les Jeunes Gens) 1:27
8 No. 7, "Parle-moi de ma mere!" (Don Jose) 0:55
9 No. 8, "Au secours!" (Chorus) 8:56
10 No. 9, "Voyons, brigadier" 1:31
11 No. 10a, "Pres des remparts de Seville" (Seguidilla) (Carmen) 3:00
12 No. 10b, "Voice l'orde" (Zuniga) 3:44
13 Act II, No. 11a, "Entr'acte" 4:31
14 No. 11b, "Les tringles des sistres tintaient" (Gypsy Song) (Carmen) 1:59
15 No. 11c, "Dans bohemienne" 1:40
16 No. 11d, "Vous avez quelque chose" 4:17
17 No. 12a, "Vivat, vivat le torero!" (Chorus) 0:57
18 No. 12b, "Votre toast... je peux vous le rendre" (Toreador's Song) (Escamillo) 1:09
19 No. 13, "Nous avons en tete une affaire!" (Dancaire) 4:48
20 No. 14, "Halte-la! Qui va la?" (Don Jose) 1:33
21 No. 15a, "Je vais danser en votre honneur" (Carmen) 4:47
CD 2
1 No. 15b, "Au quartier! pour l'appel" (Carmen) 0:26
2 No. 15c, "La fleur que tu ma'vais jetee" (Flower Song) (Don Jose) 1:32
3 No. 15d, "Non! tu ne ma'aimes pas!" (Carmen) 5:51
4 No. 16, "Hola! Carmen!" (Zuniga) 7:48
5 Act III, No. 17a, "Entr'acte" 4:56
6 No. 17b, "Ecoute, compagnon, ecoute" (Les Contrebandiers) 2:59
7 No. 17c, "Notre metier est bon" (Les Six) 4:01
8 No. 18a, "Melons! Coupons!" (Card Scene) (Mercedes, Frasquita) 2:15
9 No. 18b, "Voyons, que f'essaie a mon tour" 6:50
10 No. 18c, "En vain, pour eviter les reponses ameres" (Carmen) 0:37
11 No. 19, "Quant au douanier c'est notre affaire" (Carmen, Mercedes, Frasquita et Femmes) 2:48
12 No. 20, "Je dis que rien ne m'epouvante" (Micaela's Aria) 5:49
13 No. 21, "Je suis Escamillo" (Escamillo)
14 Act IV, No. 22a, "Entr'acte" 11:29
15 No. 22b, "A deux cuartos!" (Chorus) 2:01
16 No. 23, "Les voici, noici la quandrille" (Chorus) 1:55
17 No. 24, "Si tu m'aimes, Carmen" (Escamillo) 6:52
18 No. 25, "C'est toi!", Final Duet (Carmen, Don Jose) 8:44

Лог создания рипа

Лог создания рипа CD1

Exact Audio Copy V1.0 beta 3 from 29. August 2011
EAC extraction logfile from 30. August 2012, 20:34
Georges Bizet / Bizet - Carmen - Prêtre (Disc 1)
Used drive : HL-DT-STDVDRAM GSA-H10A Adapter: 0 ID: 0
Read mode : Secure
Utilize accurate stream : Yes
Defeat audio cache : Yes
Make use of C2 pointers : No
Read offset correction : 667
Overread into Lead-In and Lead-Out : No
Fill up missing offset samples with silence : Yes
Delete leading and trailing silent blocks : No
Null samples used in CRC calculations : Yes
Used interface : Native Win32 interface for Win NT & 2000
Used output format : User Defined Encoder
Selected bitrate : 1024 kBit/s
Quality : High
Add ID3 tag : No
Command line compressor : C:\Program Files\Exact Audio Copy\Flac\flac.exe
Additional command line options : -8 -V -T "TITLE=%title%" -T "ARTIST=%artist%" -T "ALBUMARTIST=%albumartist%" -T "ALBUM=%albumtitle%" -T "DATE=%year%" -T "TRACKNUMBER=%tracknr%" -T "TRACKTOTAL=%numtracks%" -T "GENRE=%genre%" -T "COMMENT=%comment%" -T "PERFORMER=%albuminterpret%" -T "COMPOSER=%composer%" %source% -o %dest%
TOC of the extracted CD
Track | Start | Length | Start sector | End sector
---------------------------------------------------------
1 | 0:00.33 | 3:36.50 | 33 | 16282
2 | 3:37.08 | 5:59.42 | 16283 | 43249
3 | 9:36.50 | 3:54.35 | 43250 | 60834
4 | 13:31.10 | 1:13.38 | 60835 | 66347
5 | 14:44.48 | 4:06.60 | 66348 | 84857
6 | 18:51.33 | 4:45.40 | 84858 | 106272
7 | 23:36.73 | 1:28.62 | 106273 | 112934
8 | 25:05.60 | 0:55.40 | 112935 | 117099
9 | 26:01.25 | 8:56.50 | 117100 | 157349
10 | 34:58.00 | 1:31.15 | 157350 | 164189
11 | 36:29.15 | 3:00.45 | 164190 | 177734
12 | 39:29.60 | 3:44.20 | 177735 | 194554
13 | 43:14.05 | 4:31.35 | 194555 | 214914
14 | 47:45.40 | 2:00.58 | 214915 | 223972
15 | 49:46.23 | 1:39.30 | 223973 | 231427
16 | 51:25.53 | 4:17.27 | 231428 | 250729
17 | 55:43.05 | 0:56.60 | 250730 | 254989
18 | 56:39.65 | 1:09.48 | 254990 | 260212
19 | 57:49.38 | 4:48.45 | 260213 | 281857
20 | 62:38.08 | 1:34.00 | 281858 | 288907
21 | 64:12.08 | 4:45.02 | 288908 | 310284
Range status and errors
Selected range
Filename F:\Ripped general\[1095] Bizet - Carmen - Prêtre\cd1\Bizet - Carmen - Prêtre (Disc 1).wav
Peak level 98.0 %
Extraction speed 6.5 X
Range quality 99.9 %
Test CRC FFE5CD0B
Copy CRC FFE5CD0B
Copy OK
No errors occurred
AccurateRip summary
Track 1 accurately ripped (confidence 5) [84B5BA45] (AR v1)
Track 2 accurately ripped (confidence 5) [DD8298B6] (AR v1)
Track 3 accurately ripped (confidence 5) [46D71278] (AR v1)
Track 4 accurately ripped (confidence 5) [AF132EEA] (AR v1)
Track 5 accurately ripped (confidence 5) [1708B9B7] (AR v1)
Track 6 accurately ripped (confidence 5) [E00907A8] (AR v1)
Track 7 accurately ripped (confidence 5) [9F767EBA] (AR v1)
Track 8 accurately ripped (confidence 5) [9EB020CA] (AR v1)
Track 9 accurately ripped (confidence 5) [53A6E9AF] (AR v1)
Track 10 accurately ripped (confidence 5) [2E5CFA0A] (AR v1)
Track 11 accurately ripped (confidence 5) [A47FE122] (AR v1)
Track 12 accurately ripped (confidence 5) [AD619493] (AR v1)
Track 13 accurately ripped (confidence 5) [BC5F5A56] (AR v1)
Track 14 accurately ripped (confidence 5) [DC489C36] (AR v1)
Track 15 accurately ripped (confidence 5) [89B99E1A] (AR v1)
Track 16 accurately ripped (confidence 5) [96E9FFA5] (AR v1)
Track 17 accurately ripped (confidence 5) [25CDB13D] (AR v1)
Track 18 accurately ripped (confidence 5) [A9FA742D] (AR v1)
Track 19 accurately ripped (confidence 5) [E903E864] (AR v1)
Track 20 accurately ripped (confidence 5) [60C31A91] (AR v1)
Track 21 accurately ripped (confidence 5) [959327A3] (AR v1)
All tracks accurately ripped
End of status report

Лог создания рипа CD2

Exact Audio Copy V1.0 beta 3 from 29. August 2011
EAC extraction logfile from 30. August 2012, 20:59
Georges Prêtre / Bizet - Carmen - Prêtre (Disc 2)
Used drive : HL-DT-STDVDRAM GSA-H10A Adapter: 0 ID: 0
Read mode : Secure
Utilize accurate stream : Yes
Defeat audio cache : Yes
Make use of C2 pointers : No
Read offset correction : 667
Overread into Lead-In and Lead-Out : No
Fill up missing offset samples with silence : Yes
Delete leading and trailing silent blocks : No
Null samples used in CRC calculations : Yes
Used interface : Native Win32 interface for Win NT & 2000
Used output format : User Defined Encoder
Selected bitrate : 1024 kBit/s
Quality : High
Add ID3 tag : No
Command line compressor : C:\Program Files\Exact Audio Copy\Flac\flac.exe
Additional command line options : -8 -V -T "TITLE=%title%" -T "ARTIST=%artist%" -T "ALBUMARTIST=%albumartist%" -T "ALBUM=%albumtitle%" -T "DATE=%year%" -T "TRACKNUMBER=%tracknr%" -T "TRACKTOTAL=%numtracks%" -T "GENRE=%genre%" -T "COMMENT=%comment%" -T "PERFORMER=%albuminterpret%" -T "COMPOSER=%composer%" %source% -o %dest%
TOC of the extracted CD
Track | Start | Length | Start sector | End sector
---------------------------------------------------------
1 | 0:00.33 | 0:25.60 | 33 | 1967
2 | 0:26.18 | 1:32.42 | 1968 | 8909
3 | 1:58.60 | 5:51.25 | 8910 | 35259
4 | 7:50.10 | 7:48.50 | 35260 | 70409
5 | 15:38.60 | 4:54.33 | 70410 | 92492
6 | 20:33.18 | 2:58.45 | 92493 | 105887
7 | 23:31.63 | 4:01.52 | 105888 | 124014
8 | 27:33.40 | 2:15.53 | 124015 | 134192
9 | 29:49.18 | 6:50.47 | 134193 | 164989
10 | 36:39.65 | 0:37.43 | 164990 | 167807
11 | 37:17.33 | 2:49.15 | 167808 | 180497
12 | 40:06.48 | 5:49.32 | 180498 | 206704
13 | 45:56.05 | 0:27.63 | 206705 | 208792
14 | 46:23.68 | 11:31.35 | 208793 | 260652
15 | 57:55.28 | 2:00.72 | 260653 | 269724
16 | 59:56.25 | 1:55.28 | 269725 | 278377
17 | 61:51.53 | 6:52.37 | 278378 | 309314
18 | 68:44.15 | 8:44.20 | 309315 | 348634
Range status and errors
Selected range
Filename F:\Ripped general\[1095] Bizet - Carmen - Prêtre\cd2\Bizet - Carmen - Prêtre (Disc 2).wav
Peak level 87.4 %
Extraction speed 7.7 X
Range quality 100.0 %
Test CRC E4BA9C66
Copy CRC E4BA9C66
Copy OK
No errors occurred
AccurateRip summary
Track 1 accurately ripped (confidence 5) [BE160F21] (AR v1)
Track 2 accurately ripped (confidence 5) [F5C4EE0F] (AR v1)
Track 3 accurately ripped (confidence 5) [E1B2DDB7] (AR v1)
Track 4 accurately ripped (confidence 5) [8A08C75E] (AR v1)
Track 5 accurately ripped (confidence 5) [493250DB] (AR v1)
Track 6 accurately ripped (confidence 5) [020AC337] (AR v1)
Track 7 accurately ripped (confidence 5) [C3B295AA] (AR v1)
Track 8 accurately ripped (confidence 5) [1B6E1874] (AR v1)
Track 9 accurately ripped (confidence 5) [5C69FCC0] (AR v1)
Track 10 accurately ripped (confidence 5) [21D60859] (AR v1)
Track 11 accurately ripped (confidence 5) [DDFE0429] (AR v1)
Track 12 accurately ripped (confidence 5) [F10EBF85] (AR v1)
Track 13 accurately ripped (confidence 5) [D2F82EC3] (AR v1)
Track 14 accurately ripped (confidence 5) [4F35A047] (AR v1)
Track 15 accurately ripped (confidence 5) [6B41624F] (AR v1)
Track 16 accurately ripped (confidence 5) [DA43D98A] (AR v1)
Track 17 accurately ripped (confidence 5) [2C7A07B2] (AR v1)
Track 18 accurately ripped (confidence 4) [B59B25DB] (AR v1)
All tracks accurately ripped
End of status report

Лог проверки качества

AUDIOCHECKER v2.0 beta (build 457) - by Dester - opdester@freemail.hu
~~~~~~~~~~~~~~~~~~~~~~~~~~~~~~~~~~
-=== DO NOT EDIT THIS FILE! ===-
Path: ...\Bizet - Carmen (Pretre)
1 -=- Bizet - Carmen - Pretre (Disc 1).flac -=- CDDA (100%)
2 -=- Bizet - Carmen - Pretre (Disc 2).flac -=- CDDA (100%)
Summary 100,00% CDDA
157713300



Показать сообщения:    

Текущее время: 11-Дек 07:13

Часовой пояс: UTC + 3


Вы не можете начинать темы
Вы не можете отвечать на сообщения
Вы не можете редактировать свои сообщения
Вы не можете удалять свои сообщения
Вы не можете голосовать в опросах
Вы не можете прикреплять файлы к сообщениям
Вы не можете скачивать файлы