(Classical) [LP] [24/48] Anton Bruckner - Simfonie Nr9 d-moll (Staatskapelle Dresden;Dirigent: Eugen Jochum) - 1978, FLAC (tracks+.cue)


Статистика раздачи [Обновить пиров]
Размер:  607 MB   |    Зарегистрирован:  8 месяцев 18 дней   |    Скачан:  0 раз

Полного источника не было: Никогда

Личеров:  3  [  0 KB/s  ]   Подробная статистика пиров
 
   
 
 
 

[Цитировать]

Anton Bruckner - Simfonie Nr9 d-moll (Staatskapelle Dresden;Dirigent: Eugen Jochum)
Жанр: Classical
Носитель: LP
Год выпуска: 1978
Лейбл: Eterna
Страна-производитель: DDR
Аудио кодек: FLAC
Тип рипа: tracks+.cue
Формат записи: 32/192
Формат раздачи: 24/48
Продолжительность: 61:04 min
Треклист:
Anton Bruckner
01. Feierlich.Misterioso
02. Scherzo. Bewegt, lebhaft
03. Adagio. Langsam, feierlich
Staatskapelle Dresden;Dirigent: Eugen Jochum
Источник оцифровки: автором раздачи
Код класса состояния винила: NM
Устройство воспроизведения: Электроника ЭП 017С
Головка звукоснимателя: Audio-Technica AT95
Предварительный усилитель: Бриг-001
АЦП: VIA HD audio device
Программа-оцифровщик: Izotope RX III Advanced
Обработка: Manual

Спектр+АЧХ+Уровень записи

DR=14

foobar2000 1.1.10 / Dynamic Range Meter 1.1.1
log date: 2014-12-16 17:25:11
--------------------------------------------------------------------------------
Analyzed: Anton Bruckner / Simfonie Nr9 d-moll
--------------------------------------------------------------------------------
DR Peak RMS Duration Track
--------------------------------------------------------------------------------
DR14 -1.19 dB -23.06 dB 23:08 ?-Feierlich.Misterioso
DR15 -3.76 dB -25.31 dB 10:03 ?-Scherzo. Bewegt, lebhaft
DR13 -1.64 dB -21.53 dB 27:52 ?-Adagio. Langsam, feierlich
--------------------------------------------------------------------------------
Number of tracks: 3
Official DR value: DR14
Samplerate: 48000 Hz
Channels: 2
Bits per sample: 24
Bitrate: 1365 kbps
Codec: FLAC
================================================================================

Back & Disc

[teatrix.ru].t19749.torrent 
Торрент: Зарегистрирован [ 2016-03-19 00:03 ] · 95736DE42C05975F6E32CA60444EACD32912C40B

Скачать .torrent

Скачать

13 KB

Статус: проверено
Скачан: 0 раз
Размер: 607 MB
terms.php



Быстрый ответ

Имя:

      
Для отправки сообщений необходимо включить JavaScript
Показать сообщения:    

Текущее время: 06-Дек 22:49

Часовой пояс: UTC + 3


Вы можете начинать темы
Вы можете отвечать на сообщения
Вы не можете редактировать свои сообщения
Вы не можете удалять свои сообщения
Вы не можете голосовать в опросах
Вы не можете прикреплять файлы к сообщениям
Вы можете скачивать файлы