(Opera) Giordano - Andrea Chenier (Huder, Gigli, Bechi, Caniglia, Simionato, Tajo - Orchestra E Coro Del Teatro Alla Scala Di Milano, de Fabritiis) - 2002, APE (image+.cue) lossless


 

[Цитировать]

Umberto Giordano - Andrea Chénier
Жанр: Opera
Страна-производитель диска: Germany
Год издания диска: 2002
Издатель (лейбл): Cantus Classics
Номер по каталогу: 5.00295
Дата записи: 1941
Аудиокодек: APE
Тип рипа: image+.cue
Битрейт аудио: lossless
Продолжительность: 53'12+53'45
Источник: собственный рип
Наличие сканов в содержимом раздачи: да
Треклист:

CD1

1. Act I, Questo azzurro sofa la collochiam
2. Act I, Complacente a'colloqui
3. Act I, Son sessant'anni, o vechio, che tu serv!
4. Act I, Il giorno intorno gia s'insera lentamente!
5. Act I, Via, v'afrettate
6. Act I, Soffoco, moro tutta chiusa
7. Act I, Oh! Come elegante
8. Act I, Debole e il Re!
9. Act I, Passiamo la sera allegramente!
10. Act I, O Pastorelle, addio!
11. Act I, Signor Chenier?
12. Act I, Al mio dire perdono
13. Act I, Colpito qui m'avete...
14. Act I, Un di all'azzurro spazio
15. Act I, Perdonatemi!
16. Act II, Per l'ex inferno!
17. Act II, Terner? Perche?
18. Act II, No, non m'inganno!
19. Act II, Credo a una possanza arcana
20. Act II, Calligrafia invero femminil!
21. Act II, Eccole! Stranitempi!
22. Act II, Ecco l'altare
23. Act II, Eravate possente
24. Act II, Udite! Son sola!
25. Act II, Maddalena di Coigny!

CD2

1. Act III, Dumouriez traditore e giacobino
2. Act III, Lacrime e sangue da la Francia!
3. Act III, Son la vecchia Madelon
4. Act III, Amici ancor cantiam!
5. Act III, Donnina innamorata
6. Act III, Nemico della patria!
7. Act III, Carlo Gerard?
8. Act III, Lot'ho voluta allor che tu piccina
9. Act III, La mamma morta
10. Act III, Il tuo perdono e la mia forza
11. Act III, Passo ai giurati
12. Act III, Gravier de Vergennes
13. Act III, Andrea Chénier!
14. Act III, Udiamo i testimoni
15. Act IV, Cittadino, men duol
16. Act IV, Come un bel di di maggio
17. Act IV, La Marseillaise
18. Act IV, Il vostro giuramento vi sovvengo
19. Act IV, Benedico il destino!
Исполнители:
Umberto Giordano - Andrea Chénier
Opera in 3 Acts
Libretto: Luigi Ilica
Andrea Chenier - Beniamino Gigli (Tenor)
Gerard - Gino Bechi (Baritone)
Maddalena - Maria Caniglia (Soprano)
Bersi - Maria Huder (Mezzo Soprano)
Contessa di Coigny - Giulietta Simionato (Mezzo Soprano)
Madelon - Vittoria Palombini (Mezzo Soprano)
Roucher - Italo Tajo (Bass)
Fleville - Giuseppe Taddei (Baritone)
Fouquier Tinville - Leone Paci (Bass)
Orchestra E Coro Del Teatro Alla Scala Di Milano
Oliviero de Fabritiis

Лог создания рипа

CD1

Exact Audio Copy V1.0 beta 3 from 29. August 2011
EAC extraction logfile from 1. September 2014, 21:17
Giordano / Andrea Chenier, de Fabritiis CD1
Used drive : TS8XDVDSTRANSCEND Adapter: 1 ID: 1
Read mode : Secure
Utilize accurate stream : Yes
Defeat audio cache : Yes
Make use of C2 pointers : No
Read offset correction : 6
Overread into Lead-In and Lead-Out : No
Fill up missing offset samples with silence : Yes
Delete leading and trailing silent blocks : No
Null samples used in CRC calculations : Yes
Used interface : Native Win32 interface for Win NT & 2000
Used output format : Monkey's Audio Lossless Encoder
Selected bitrate : High Lossless Compression
Quality : High
Add ID3 tag : No
Command line compressor : C:\Program Files (x86)\Exact Audio Copy\MAC\MAC.exe
TOC of the extracted CD
Track | Start | Length | Start sector | End sector
---------------------------------------------------------
1 | 0:00.00 | 0:42.22 | 0 | 3171
2 | 0:42.22 | 1:45.28 | 3172 | 11074
3 | 2:27.50 | 2:20.60 | 11075 | 21634
4 | 4:48.35 | 0:57.13 | 21635 | 25922
5 | 5:45.48 | 1:04.50 | 25923 | 30772
6 | 6:50.23 | 1:51.25 | 30773 | 39122
7 | 8:41.48 | 1:55.62 | 39123 | 47809
8 | 10:37.35 | 1:08.15 | 47810 | 52924
9 | 11:45.50 | 2:06.73 | 52925 | 62447
10 | 13:52.48 | 2:20.36 | 62448 | 72983
11 | 16:13.09 | 0:46.59 | 72984 | 76492
12 | 16:59.68 | 1:49.15 | 76493 | 84682
13 | 18:49.08 | 0:47.56 | 84683 | 88263
14 | 19:36.64 | 4:12.40 | 88264 | 107203
15 | 23:49.29 | 4:15.22 | 107204 | 126350
16 | 28:04.51 | 1:07.61 | 126351 | 131436
17 | 29:12.37 | 1:51.48 | 131437 | 139809
18 | 31:04.10 | 1:19.65 | 139810 | 145799
19 | 32:24.00 | 3:43.60 | 145800 | 162584
20 | 36:07.60 | 4:07.63 | 162585 | 181172
21 | 40:15.48 | 3:58.06 | 181173 | 199028
22 | 44:13.54 | 2:39.54 | 199029 | 211007
23 | 46:53.33 | 1:28.49 | 211008 | 217656
24 | 48:22.07 | 3:01.02 | 217657 | 231233
25 | 51:23.09 | 1:49.59 | 231234 | 239467
Range status and errors
Selected range
Filename D:\EAC\Giordano - Andrea Chenier, de Fabritiis CD1.wav
Peak level 83.5 %
Extraction speed 3.2 X
Range quality 100.0 %
Test CRC 1A1819A4
Copy CRC 1A1819A4
Copy OK
No errors occurred
AccurateRip summary
Track 1 accurately ripped (confidence 1) [42FEC8BB] (AR v1)
Track 2 accurately ripped (confidence 1) [FB427508] (AR v1)
Track 3 accurately ripped (confidence 1) [2BB64E11] (AR v1)
Track 4 accurately ripped (confidence 1) [9410BBA3] (AR v1)
Track 5 accurately ripped (confidence 1) [1289EF22] (AR v1)
Track 6 accurately ripped (confidence 1) [EFD3C51B] (AR v1)
Track 7 accurately ripped (confidence 1) [48672540] (AR v1)
Track 8 accurately ripped (confidence 1) [3F94F8EC] (AR v1)
Track 9 accurately ripped (confidence 1) [7E7E0FF6] (AR v1)
Track 10 accurately ripped (confidence 1) [C7BEF512] (AR v1)
Track 11 accurately ripped (confidence 1) [96B5C2F7] (AR v1)
Track 12 accurately ripped (confidence 1) [C40D8CD2] (AR v1)
Track 13 accurately ripped (confidence 1) [B5678A04] (AR v1)
Track 14 accurately ripped (confidence 1) [92480A7E] (AR v1)
Track 15 accurately ripped (confidence 1) [639F7BF2] (AR v1)
Track 16 accurately ripped (confidence 1) [E4806850] (AR v1)
Track 17 accurately ripped (confidence 1) [D94DAB18] (AR v1)
Track 18 accurately ripped (confidence 1) [00C63A01] (AR v1)
Track 19 accurately ripped (confidence 1) [563CFBB4] (AR v1)
Track 20 accurately ripped (confidence 1) [FFB10129] (AR v1)
Track 21 accurately ripped (confidence 1) [918003EE] (AR v1)
Track 22 accurately ripped (confidence 1) [BE6D9B57] (AR v1)
Track 23 accurately ripped (confidence 1) [8AB47F26] (AR v1)
Track 24 accurately ripped (confidence 1) [1AD435CB] (AR v1)
Track 25 accurately ripped (confidence 1) [39BBBA76] (AR v1)
All tracks accurately ripped
End of status report
---- CUETools DB Plugin V2.1.3
[CTDB TOCID: J4o7dbdhQCBBnl5zmvv6CDCuBkk-] database access error: Er is een time-out opgetreden voor de bewerking
==== Log checksum F4CB65F505F2CDDE0E0A99A312FB5C1E1C87353D554C6B909BE12A15226C5769 ====

CD2

Exact Audio Copy V1.0 beta 3 from 29. August 2011
EAC extraction logfile from 1. September 2014, 21:29
Giordano / Andrea Chenier, de Fabritiis CD2
Used drive : TSSTcorpCDDVDW SE-208AB Adapter: 1 ID: 0
Read mode : Secure
Utilize accurate stream : Yes
Defeat audio cache : Yes
Make use of C2 pointers : No
Read offset correction : 6
Overread into Lead-In and Lead-Out : No
Fill up missing offset samples with silence : Yes
Delete leading and trailing silent blocks : No
Null samples used in CRC calculations : Yes
Used interface : Native Win32 interface for Win NT & 2000
Used output format : Monkey's Audio Lossless Encoder
Selected bitrate : High Lossless Compression
Quality : High
Add ID3 tag : No
Command line compressor : C:\Program Files (x86)\Exact Audio Copy\MAC\MAC.exe
TOC of the extracted CD
Track | Start | Length | Start sector | End sector
---------------------------------------------------------
1 | 0:00.00 | 3:03.19 | 0 | 13743
2 | 3:03.19 | 2:04.26 | 13744 | 23069
3 | 5:07.45 | 3:22.38 | 23070 | 38257
4 | 8:30.08 | 1:37.39 | 38258 | 45571
5 | 10:07.47 | 2:42.48 | 45572 | 57769
6 | 12:50.20 | 5:05.23 | 57770 | 80667
7 | 17:55.43 | 1:33.27 | 80668 | 87669
8 | 19:28.70 | 3:15.24 | 87670 | 102318
9 | 22:44.19 | 5:49.19 | 102319 | 128512
10 | 28:33.38 | 1:10.45 | 128513 | 133807
11 | 29:44.08 | 1:40.19 | 133808 | 141326
12 | 31:24.27 | 0:39.45 | 141327 | 144296
13 | 32:03.72 | 3:03.25 | 144297 | 158046
14 | 35:07.22 | 2:47.57 | 158047 | 170628
15 | 37:55.04 | 1:15.61 | 170629 | 176314
16 | 39:10.65 | 2:56.32 | 176315 | 189546
17 | 42:07.22 | 0:50.45 | 189547 | 193341
18 | 42:57.67 | 2:15.61 | 193342 | 203527
19 | 45:13.53 | 8:31.25 | 203528 | 241877
Range status and errors
Selected range
Filename D:\EAC\Giordano - Andrea Chenier, de Fabritiis CD2.wav
Peak level 83.5 %
Extraction speed 2.0 X
Range quality 99.9 %
Test CRC D3D92636
Copy CRC D3D92636
Copy OK
No errors occurred
AccurateRip summary
Track 1 accurately ripped (confidence 1) [7C08CC66] (AR v1)
Track 2 accurately ripped (confidence 1) [C50FAB43] (AR v1)
Track 3 accurately ripped (confidence 1) [D6DFA7F1] (AR v1)
Track 4 accurately ripped (confidence 1) [BECDF03F] (AR v1)
Track 5 accurately ripped (confidence 1) [04F786FA] (AR v1)
Track 6 accurately ripped (confidence 1) [BE37BE98] (AR v1)
Track 7 accurately ripped (confidence 1) [495745B4] (AR v1)
Track 8 accurately ripped (confidence 1) [BF9D05AE] (AR v1)
Track 9 accurately ripped (confidence 1) [9AA7D4DD] (AR v1)
Track 10 accurately ripped (confidence 1) [AA1E34CD] (AR v1)
Track 11 accurately ripped (confidence 1) [07F5AC3C] (AR v1)
Track 12 accurately ripped (confidence 1) [0B901D3D] (AR v1)
Track 13 accurately ripped (confidence 1) [324F4693] (AR v1)
Track 14 accurately ripped (confidence 1) [E020B74A] (AR v1)
Track 15 accurately ripped (confidence 1) [7C2A86C5] (AR v1)
Track 16 accurately ripped (confidence 1) [4E043385] (AR v1)
Track 17 accurately ripped (confidence 1) [BCEF94A0] (AR v1)
Track 18 accurately ripped (confidence 1) [F7A3322E] (AR v1)
Track 19 accurately ripped (confidence 1) [CBE670D4] (AR v1)
All tracks accurately ripped
End of status report
---- CUETools DB Plugin V2.1.3
[CTDB TOCID: KUdybNWUnwlq2u6H2.hb3mJsEOU-] found, Submit result: KUdybNWUnwlq2u6H2.hb3mJsEOU- has been confirmed
[a1e4887e] (2/2) Accurately ripped
==== Log checksum C58024ADAE28959526F97B6F6953916056B8BCC48D46A28759B802BCBD0BB1B8 ====

Содержание индексной карты (.CUE)

CD1

REM GENRE Opera
REM DATE 1941
REM DISCID 5B0C7819
REM COMMENT "ExactAudioCopy v1.0b3"
PERFORMER "Giordano"
TITLE "Andrea Chenier, de Fabritiis CD1"
FILE "Giordano - Andrea Chenier, de Fabritiis CD1.ape" WAVE
TRACK 01 AUDIO
TITLE "Act I, Questo azzurro sofa la collochiam"
PERFORMER "Giordano"
ISRC 000000000000
INDEX 01 00:00:00
TRACK 02 AUDIO
TITLE "Act I, Complacente a'colloqui"
PERFORMER "Giordano"
ISRC 000000000000
INDEX 01 00:42:22
TRACK 03 AUDIO
TITLE "Act I, Son sessant'anni, o vechio, che tu serv!"
PERFORMER "Giordano"
ISRC 000000000000
INDEX 01 02:27:50
TRACK 04 AUDIO
TITLE "Act I, Il giorno intorno gia s'insera lentamente!"
PERFORMER "Giordano"
ISRC 000000000000
INDEX 01 04:48:35
TRACK 05 AUDIO
TITLE "Act I, Via, v'afrettate"
PERFORMER "Giordano"
ISRC 000000000000
INDEX 01 05:45:48
TRACK 06 AUDIO
TITLE "Act I, Soffoco, moro tutta chiusa"
PERFORMER "Giordano"
ISRC 000000000000
INDEX 01 06:50:23
TRACK 07 AUDIO
TITLE "Act I, Oh! Come elegante"
PERFORMER "Giordano"
ISRC 000000000000
INDEX 01 08:41:48
TRACK 08 AUDIO
TITLE "Act I, Debole e il Re!"
PERFORMER "Giordano"
ISRC 000000000000
INDEX 01 10:37:35
TRACK 09 AUDIO
TITLE "Act I, Passiamo la sera allegramente!"
PERFORMER "Giordano"
ISRC 000000000000
INDEX 01 11:45:50
TRACK 10 AUDIO
TITLE "Act I, O Pastorelle, addio!"
PERFORMER "Giordano"
ISRC 000000000000
INDEX 01 13:52:48
TRACK 11 AUDIO
TITLE "Act I, Signor Chenier?"
PERFORMER "Giordano"
ISRC 000000000000
INDEX 01 16:13:09
TRACK 12 AUDIO
TITLE "Act I, Al mio dire perdono"
PERFORMER "Giordano"
ISRC 000000000000
INDEX 01 16:59:68
TRACK 13 AUDIO
TITLE "Act I, Colpito qui m'avete.."
PERFORMER "Giordano"
ISRC 000000000000
INDEX 01 18:49:08
TRACK 14 AUDIO
TITLE "Act I, Un di all'azzurro spazio"
PERFORMER "Giordano"
ISRC 000000000000
INDEX 01 19:36:64
TRACK 15 AUDIO
TITLE "Act I, Perdonatemi!"
PERFORMER "Giordano"
ISRC 000000000000
INDEX 01 23:49:29
TRACK 16 AUDIO
TITLE "Act II, Per l'ex inferno!"
PERFORMER "Giordano"
ISRC 000000000000
INDEX 01 28:04:51
TRACK 17 AUDIO
TITLE "Act II, Terner? Perche?"
PERFORMER "Giordano"
ISRC 000000000000
INDEX 01 29:12:37
TRACK 18 AUDIO
TITLE "Act II, No, non m'inganno!"
PERFORMER "Giordano"
ISRC 000000000000
INDEX 01 31:04:10
TRACK 19 AUDIO
TITLE "Act II, Credo a una possanza arcana"
PERFORMER "Giordano"
ISRC 000000000000
INDEX 01 32:24:00
TRACK 20 AUDIO
TITLE "Act II, Calligrafia invero femminil!"
PERFORMER "Giordano"
ISRC 000000000000
INDEX 01 36:07:60
TRACK 21 AUDIO
TITLE "Act II, Eccole! Stranitempi!"
PERFORMER "Giordano"
ISRC 000000000000
INDEX 01 40:15:48
TRACK 22 AUDIO
TITLE "Act II, Ecco l'altare"
PERFORMER "Giordano"
ISRC 000000000000
INDEX 01 44:13:54
TRACK 23 AUDIO
TITLE "Act II, Eravate possente"
PERFORMER "Giordano"
ISRC 000000000000
INDEX 01 46:53:33
TRACK 24 AUDIO
TITLE "Act II, Udite! Son sola!"
PERFORMER "Giordano"
ISRC 000000000000
INDEX 01 48:22:07
TRACK 25 AUDIO
TITLE "Act II, Maddalena di Coigny! "
PERFORMER "Giordano"
ISRC 000000000000
INDEX 01 51:23:09

CD2

REM GENRE Oprea
REM DATE 1941
REM DISCID 1A0C9913
REM COMMENT "ExactAudioCopy v1.0b3"
PERFORMER "Giordano"
TITLE "Andrea Chenier, de Fabritiis CD2"
FILE "Giordano - Andrea Chenier, de Fabritiis CD2.ape" WAVE
TRACK 01 AUDIO
TITLE "Act III, Dumouriez traditore e giacobino"
PERFORMER "Giordano"
ISRC 000000000000
INDEX 01 00:00:00
TRACK 02 AUDIO
TITLE "Act III, Lacrime e sangue da la Francia!"
PERFORMER "Giordano"
ISRC 000000000000
INDEX 01 03:03:19
TRACK 03 AUDIO
TITLE "Act III, Son la vecchia Madelon"
PERFORMER "Giordano"
ISRC 000000000000
INDEX 01 05:07:45
TRACK 04 AUDIO
TITLE "Act III, Amici ancor cantiam!"
PERFORMER "Giordano"
ISRC 000000000000
INDEX 01 08:30:08
TRACK 05 AUDIO
TITLE "Act III, Donnina innamorata"
PERFORMER "Giordano"
ISRC 000000000000
INDEX 01 10:07:47
TRACK 06 AUDIO
TITLE "Act III, Nemico della patria!"
PERFORMER "Giordano"
ISRC 000000000000
INDEX 01 12:50:20
TRACK 07 AUDIO
TITLE "Act III, Carlo Gerard?"
PERFORMER "Giordano"
ISRC 000000000000
INDEX 01 17:55:43
TRACK 08 AUDIO
TITLE "Act III, Lot'ho voluta allor che tu piccina"
PERFORMER "Giordano"
ISRC 000000000000
INDEX 01 19:28:70
TRACK 09 AUDIO
TITLE "Act III, La mamma morta"
PERFORMER "Giordano"
ISRC 000000000000
INDEX 01 22:44:19
TRACK 10 AUDIO
TITLE "Act III, Il tuo perdono e la mia forza"
PERFORMER "Giordano"
ISRC 000000000000
INDEX 01 28:33:38
TRACK 11 AUDIO
TITLE "Act III, Passo ai giurati"
PERFORMER "Giordano"
ISRC 000000000000
INDEX 01 29:44:08
TRACK 12 AUDIO
TITLE "Act III, Gravier de Vergennes"
PERFORMER "Giordano"
ISRC 000000000000
INDEX 01 31:24:27
TRACK 13 AUDIO
TITLE "Act III, Andrea Chénier!"
PERFORMER "Giordano"
ISRC 000000000000
INDEX 01 32:03:72
TRACK 14 AUDIO
TITLE "Act III, Udiamo i testimoni"
PERFORMER "Giordano"
ISRC 000000000000
INDEX 01 35:07:22
TRACK 15 AUDIO
TITLE "Act IV, Cittadino, men duol"
PERFORMER "Giordano"
ISRC 000000000000
INDEX 01 37:55:04
TRACK 16 AUDIO
TITLE "Act IV, Come un bel di di maggio"
PERFORMER "Giordano"
ISRC 000000000000
INDEX 01 39:10:65
TRACK 17 AUDIO
TITLE "Act IV, La Marseillaise"
PERFORMER "Giordano"
ISRC 000000000000
INDEX 01 42:07:22
TRACK 18 AUDIO
TITLE "Act IV, Il vostro giuramento vi sovvengo"
PERFORMER "Giordano"
ISRC 000000000000
INDEX 01 42:57:67
TRACK 19 AUDIO
TITLE "Act IV, Benedico il destino!"
PERFORMER "Giordano"
ISRC 000000000000
INDEX 01 45:13:53



Показать сообщения:    

Текущее время: 08-Дек 14:56

Часовой пояс: UTC + 3


Вы не можете начинать темы
Вы не можете отвечать на сообщения
Вы не можете редактировать свои сообщения
Вы не можете удалять свои сообщения
Вы не можете голосовать в опросах
Вы не можете прикреплять файлы к сообщениям
Вы не можете скачивать файлы