(Opera) Giordano - Andrea Chenier (Callas, Del Monaco, Protti, Zanolli, Amadini - Orchestra E Coro Del Teatro Alla Scala Di Milano, Votto) - 2005, APE (image+.cue) lossless


 

[Цитировать]

Umberto Giordano - Andrea Chénier
Жанр: Opera
Страна-производитель диска: Germany
Год издания диска: 2005
Издатель (лейбл): Cantus Classics
Номер по каталогу: 5.00606
Дата записи: 1955
Аудиокодек: APE
Тип рипа: image+.cue
Битрейт аудио: lossless
Продолжительность: 54'04+53'46
Источник: собственный рип
Наличие сканов в содержимом раздачи: да
Треклист:

CD1

1. Questo azzurra sofa
2. Son sessant' anni, o vecchio, che tu servi
3. Soffoco...moro
4. O pastorelle addio!
5. Un di all' azzurro spazio
6. Per l' ex inferno!
7. Temer? Perché? Perché temer dovro?
8. Io non ho amato ancor!...
9. Calligrafia invero femminil! Carta elegante!
10. La donna che mi hai chiesto di cercare
11. Eravate possente

CD2

1. Dumouriez traditore e girondino
2. Son la vecchia Madelon
3. Nemico della patria?
4. Carlo Gerard?
5. La mamma morta
6. Si, fui soldato
7. Udiamo I testimoni
8. Cittadino, men duol, ma e tardi
9. Come un bel di di maggio
10. Viene a costei concesso
11. Vicino a te s'acqueta
Исполнители:
Umberto Giordano - Andrea Chénier
Opera in 3 Acts
Libretto: Luigi Ilica
Andrea Chenier - Mario Del Monaco (Tenor)
Gerard - Aldo Protti (Baritone)
Maddalena - Maria Callas (Soprano)
Bersi - Sivana Zanolli (Mezzo Soprano)
Contessa di Coigny - Maria Amadini (Mezzo Soprano)
Madelon - Vittoria Palombini (Mezzo Soprano)
Roucher - Mariano Caruso (Bass)
Fleville - Enzo Sordello (Baritone)
Fouquier Tinville - Enzo Tatozzi (Bass)
Maestro di casa - Carlo Forti (Bass)
Orchestra E Coro Del Teatro Alla Scala Di Milano
Antonino Votto

Лог создания рипа

CD1

Exact Audio Copy V1.0 beta 3 from 29. August 2011
EAC extraction logfile from 1. September 2014, 17:50
Giordano / Andrea Chenier, Votto CD1
Used drive : TSSTcorpCDDVDW SE-208AB Adapter: 1 ID: 0
Read mode : Secure
Utilize accurate stream : Yes
Defeat audio cache : Yes
Make use of C2 pointers : No
Read offset correction : 6
Overread into Lead-In and Lead-Out : No
Fill up missing offset samples with silence : Yes
Delete leading and trailing silent blocks : No
Null samples used in CRC calculations : Yes
Used interface : Native Win32 interface for Win NT & 2000
Used output format : Monkey's Audio Lossless Encoder
Selected bitrate : High Lossless Compression
Quality : High
Add ID3 tag : No
Command line compressor : C:\Program Files (x86)\Exact Audio Copy\MAC\MAC.exe
TOC of the extracted CD
Track | Start | Length | Start sector | End sector
---------------------------------------------------------
1 | 0:00.00 | 2:28.41 | 0 | 11140
2 | 2:28.41 | 4:27.68 | 11141 | 31233
3 | 6:56.34 | 6:50.02 | 31234 | 61985
4 | 13:46.36 | 5:42.01 | 61986 | 87636
5 | 19:28.37 | 8:46.26 | 87637 | 127112
6 | 28:14.63 | 1:09.11 | 127113 | 132298
7 | 29:23.74 | 4:21.39 | 132299 | 151912
8 | 33:45.38 | 1:57.46 | 151913 | 160733
9 | 35:43.09 | 2:42.54 | 160734 | 172937
10 | 38:25.63 | 8:23.20 | 172938 | 210682
11 | 46:49.08 | 7:15.17 | 210683 | 243324
Range status and errors
Selected range
Filename D:\EAC\Giordano - Andrea Chenier, Votto CD1.wav
Peak level 92.6 %
Extraction speed 2.0 X
Range quality 99.9 %
Test CRC 023A76EF
Copy CRC 023A76EF
Copy OK
No errors occurred
AccurateRip summary
Track 1 accurately ripped (confidence 1) [3338911C] (AR v1)
Track 2 accurately ripped (confidence 1) [C25AFB12] (AR v1)
Track 3 accurately ripped (confidence 1) [04A653FD] (AR v1)
Track 4 accurately ripped (confidence 1) [28E391E3] (AR v1)
Track 5 accurately ripped (confidence 1) [EAB69D13] (AR v1)
Track 6 accurately ripped (confidence 1) [45A752DE] (AR v1)
Track 7 accurately ripped (confidence 1) [CC734A5F] (AR v1)
Track 8 accurately ripped (confidence 1) [7934ED9E] (AR v1)
Track 9 accurately ripped (confidence 1) [5AD42886] (AR v1)
Track 10 accurately ripped (confidence 1) [E88A3881] (AR v1)
Track 11 accurately ripped (confidence 1) [06E8A5FC] (AR v1)
All tracks accurately ripped
End of status report
---- CUETools DB Plugin V2.1.3
[CTDB TOCID: _Cpt6y0.mhmNTAlC1ED6aoixous-] disk not present in database, Submit result: _Cpt6y0.mhmNTAlC1ED6aoixous- has been uploaded
==== Log checksum F68AEEBAB00E594F3975FA5FB4E7E59EB3EBB99DB44ADC7DDED97CC50ECAC955 ====

CD2

Exact Audio Copy V1.0 beta 3 from 29. August 2011
EAC extraction logfile from 1. September 2014, 18:15
Giordano / Andrea Chenier, Votto CD2
Used drive : TS8XDVDSTRANSCEND Adapter: 1 ID: 1
Read mode : Secure
Utilize accurate stream : Yes
Defeat audio cache : Yes
Make use of C2 pointers : No
Read offset correction : 6
Overread into Lead-In and Lead-Out : No
Fill up missing offset samples with silence : Yes
Delete leading and trailing silent blocks : No
Null samples used in CRC calculations : Yes
Used interface : Native Win32 interface for Win NT & 2000
Used output format : Monkey's Audio Lossless Encoder
Selected bitrate : High Lossless Compression
Quality : High
Add ID3 tag : No
Command line compressor : C:\Program Files (x86)\Exact Audio Copy\MAC\MAC.exe
TOC of the extracted CD
Track | Start | Length | Start sector | End sector
---------------------------------------------------------
1 | 0:00.00 | 5:08.17 | 0 | 23116
2 | 5:08.17 | 7:29.25 | 23117 | 56816
3 | 12:37.42 | 5:46.59 | 56817 | 82825
4 | 18:24.26 | 4:49.41 | 82826 | 104541
5 | 23:13.67 | 10:01.69 | 104542 | 149685
6 | 33:15.61 | 2:15.52 | 149686 | 159862
7 | 35:31.38 | 3:11.14 | 159863 | 174201
8 | 38:42.52 | 1:17.66 | 174202 | 180042
9 | 40:00.43 | 3:13.29 | 180043 | 194546
10 | 43:13.72 | 3:15.36 | 194547 | 209207
11 | 46:29.33 | 7:16.73 | 209208 | 241980
Range status and errors
Selected range
Filename D:\EAC\Giordano - Andrea Chenier, Votto CD2.wav
Peak level 93.0 %
Extraction speed 2.0 X
Range quality 99.9 %
Test CRC 8BDF9495
Copy CRC 8BDF9495
Copy OK
No errors occurred
AccurateRip summary
Track 1 accurately ripped (confidence 1) [821DF0DB] (AR v1)
Track 2 accurately ripped (confidence 1) [BDAD03BA] (AR v1)
Track 3 accurately ripped (confidence 1) [F741EB7C] (AR v1)
Track 4 accurately ripped (confidence 1) [089337EC] (AR v1)
Track 5 accurately ripped (confidence 1) [E3B83369] (AR v1)
Track 6 accurately ripped (confidence 1) [7EB7A5A2] (AR v1)
Track 7 accurately ripped (confidence 1) [D1F078CD] (AR v1)
Track 8 accurately ripped (confidence 1) [75DCCE0E] (AR v1)
Track 9 accurately ripped (confidence 1) [0AA93311] (AR v1)
Track 10 accurately ripped (confidence 1) [A59DC016] (AR v1)
Track 11 accurately ripped (confidence 1) [BD6FD194] (AR v1)
All tracks accurately ripped
End of status report
---- CUETools DB Plugin V2.1.3
[CTDB TOCID: Tib2CcAB_OgrEbSJXOedWD9tF_8-] disk not present in database, Submit result: unrecognized or virtual drive
==== Log checksum 11ACAFF132E109784478404BA395D1B58E3832FF7F2810087993EE49F817CF13 ====

Содержание индексной карты (.CUE)

CD1

REM GENRE Opera
REM DATE 1955
REM DISCID 880CAC0B
REM COMMENT "ExactAudioCopy v1.0b3"
PERFORMER "Giordano"
TITLE "Andrea Chenier, Votto CD1"
FILE "Giordano - Andrea Chenier, Votto CD1.ape" WAVE
TRACK 01 AUDIO
TITLE "Questo azzurra sofa"
PERFORMER "Giordano"
ISRC 000000000000
INDEX 01 00:00:00
TRACK 02 AUDIO
TITLE "Son sessant' anni, o vecchio, che tu servi"
PERFORMER "Giordano"
ISRC 000000000000
INDEX 01 02:28:41
TRACK 03 AUDIO
TITLE "Soffoco...moro"
PERFORMER "Giordano"
ISRC 000000000000
INDEX 01 06:56:34
TRACK 04 AUDIO
TITLE "O pastorelle addio!"
PERFORMER "Giordano"
ISRC 000000000000
INDEX 01 13:46:36
TRACK 05 AUDIO
TITLE "Un di all' azzurro spazio"
PERFORMER "Giordano"
ISRC 000000000000
INDEX 01 19:28:37
TRACK 06 AUDIO
TITLE "Per l' ex inferno!"
PERFORMER "Giordano"
ISRC 000000000000
INDEX 01 28:14:63
TRACK 07 AUDIO
TITLE "Temer? Perché? Perché temer dovro?"
PERFORMER "Giordano"
ISRC 000000000000
INDEX 01 29:23:74
TRACK 08 AUDIO
TITLE "Io non ho amato ancor!..."
PERFORMER "Giordano"
ISRC 000000000000
INDEX 01 33:45:38
TRACK 09 AUDIO
TITLE "Calligrafia invero femminil! Carta elegante!"
PERFORMER "Giordano"
ISRC 000000000000
INDEX 01 35:43:09
TRACK 10 AUDIO
TITLE "La donna che mi hai chiesto di cercare,"
PERFORMER "Giordano"
ISRC 000000000000
INDEX 01 38:25:63
TRACK 11 AUDIO
TITLE "Eravate possente"
PERFORMER "Giordano"
ISRC 000000000000
INDEX 01 46:49:08

CD2

REM GENRE Opera
REM DATE 1955
REM DISCID 930C9A0B
REM COMMENT "ExactAudioCopy v1.0b3"
PERFORMER "Giordano"
TITLE "Andrea Chenier, Votto CD2"
FILE "Giordano - Andrea Chenier, Votto CD2.ape" WAVE
TRACK 01 AUDIO
TITLE "Dritter Akt - Dumouriez traditore e girondino"
PERFORMER "Giordano"
ISRC 000000000000
INDEX 01 00:00:00
TRACK 02 AUDIO
TITLE "Dritter Akt - Son la vecchia Madelon"
PERFORMER "Giordano"
ISRC 000000000000
INDEX 01 05:08:17
TRACK 03 AUDIO
TITLE "Dritter Akt - Nemico della patria?"
PERFORMER "Giordano"
ISRC 000000000000
INDEX 01 12:37:42
TRACK 04 AUDIO
TITLE "Dritter Akt - Carlo Gerard?"
PERFORMER "Giordano"
ISRC 000000000000
INDEX 01 18:24:26
TRACK 05 AUDIO
TITLE "Dritter Akt - La mamma morta"
PERFORMER "Giordano"
ISRC 000000000000
INDEX 01 23:13:67
TRACK 06 AUDIO
TITLE "Dritter Akt - Si, fui soldato"
PERFORMER "Giordano"
ISRC 000000000000
INDEX 01 33:15:61
TRACK 07 AUDIO
TITLE "Dritter Akt - Udiamo I testimoni"
PERFORMER "Giordano"
ISRC 000000000000
INDEX 01 35:31:38
TRACK 08 AUDIO
TITLE "Vierter Akt - Cittadino, men duol, ma e tardi"
PERFORMER "Giordano"
ISRC 000000000000
INDEX 01 38:42:52
TRACK 09 AUDIO
TITLE "Vierter Akt - Come un bel di di maggio"
PERFORMER "Giordano"
ISRC 000000000000
INDEX 01 40:00:43
TRACK 10 AUDIO
TITLE "Vierter Akt - Viene a costei concesso"
PERFORMER "Giordano"
ISRC 000000000000
INDEX 01 43:13:72
TRACK 11 AUDIO
TITLE "Vierter Akt - Vicino a te s'acqueta"
PERFORMER "Giordano"
ISRC 000000000000
INDEX 01 46:29:33



Показать сообщения:    

Текущее время: 09-Дек 08:54

Часовой пояс: UTC + 3


Вы не можете начинать темы
Вы не можете отвечать на сообщения
Вы не можете редактировать свои сообщения
Вы не можете удалять свои сообщения
Вы не можете голосовать в опросах
Вы не можете прикреплять файлы к сообщениям
Вы не можете скачивать файлы