Лучшие фрагменты Шоу Эда Салливана / The Very Best Of The Ed Sullivan Show (Эндрю Солт / Andrew Solt) [1992, документальный, VHSRip]


Статистика раздачи [Обновить пиров]
Размер:  745 MB   |    Зарегистрирован:  8 месяцев 23 дня   |    Скачан:  0 раз

Полного источника не было: Никогда

Личеров:  2  [  0 KB/s  ]   Подробная статистика пиров
 
   
 
 
 

[Цитировать]

Лучшие фрагменты Шоу Эда Салливана / The Very Best Of The Ed Sullivan Show
Дата/Год выпуска: 1992
Страна: США
Жанр: документальный
Продолжительность: 01:17:10
Перевод: Студийный (одноголосый закадровый)
Доп. инфо о переводе: НТВ
Режиссер: Эндрю Солт / Andrew Solt
Телеканал: CBS
Описание: Программа о знаменитом "Шоу Эда Салливана", и о нем в частности. Включает в себя лучшие ее моменты. Выступления известных актеров, комиков, музыкантов, фокусников и многих других. Фрагменты выступлений Элвиса Пресли, The Beatles, The Rolling Stones, The Beach Boys, The Doors и других известных исполнителей. О Салливане рассказывают его коллеги, друзья, и те, кому он подарил путевку в жизнь.
Сэмпл: http://sendfile.su/1064084
качество: VHSRip
формат: AVI
Видео: 640x480 (1.33:1), 25 fps, XviD build 50 ~1349 kbps avg, 0.11 bit/pixel
Аудио: 48 kHz, MPEG Layer 3, 2 ch, ~128.00 kbps avg

MediaInfo

Format                                   : AVI
Format/Info : Audio Video Interleave
File size : 745 MiB
Duration : 1h 17mn
Overall bit rate : 1 349 Kbps
Writing application : VirtualDubMod 1.5.4.1 (build 2178/release)
Writing library : VirtualDubMod build 2178/release
Video
ID : 0
Format : MPEG-4 Visual
Format profile : Advanced Simple@L5
Format settings, BVOP : 1
Format settings, QPel : No
Format settings, GMC : No warppoints
Format settings, Matrix : Custom
Codec ID : XVID
Codec ID/Hint : XviD
Duration : 1h 17mn
Bit rate : 1 214 Kbps
Width : 640 pixels
Height : 480 pixels
Display aspect ratio : 4:3
Frame rate : 25.000 fps
Color space : YUV
Chroma subsampling : 4:2:0
Bit depth : 8 bits
Scan type : Progressive
Compression mode : Lossy
Bits/(Pixel*Frame) : 0.158
Stream size : 670 MiB (90%)
Writing library : XviD 1.2.1 (UTC 2008-12-04)
Audio
ID : 1
Format : MPEG Audio
Format version : Version 1
Format profile : Layer 3
Mode : Joint stereo
Mode extension : MS Stereo
Codec ID : 55
Codec ID/Hint : MP3
Duration : 1h 17mn
Bit rate mode : Constant
Bit rate : 128 Kbps
Channel count : 2 channels
Sampling rate : 48.0 KHz
Compression mode : Lossy
Stream size : 70.7 MiB (9%)
Alignment : Aligned on interleaves
Interleave, duration : 80 ms (2.00 video frames)
Interleave, preload duration : 504 ms
Writing library : LAME3.98r
Encoding settings : -m j -V 4 -q 2 -lowpass 17 -b 128
[teatrix.ru].t19758.torrent 
Торрент: Зарегистрирован [ 2016-03-19 00:03 ] · CABC3E3A9428C13D809942B1A2424C6BF0352414

Скачать .torrent

Скачать

15 KB

Статус: проверено
Скачан: 0 раз
Размер: 745 MB
terms.php



Быстрый ответ

Имя:

      
Для отправки сообщений необходимо включить JavaScript
Показать сообщения:    

Текущее время: 11-Дек 14:59

Часовой пояс: UTC + 3


Вы можете начинать темы
Вы можете отвечать на сообщения
Вы не можете редактировать свои сообщения
Вы не можете удалять свои сообщения
Вы не можете голосовать в опросах
Вы не можете прикреплять файлы к сообщениям
Вы можете скачивать файлы