(Baroque music for bass viol) Marin Marais - Suitte d’un gout etranger (Christophe Coin, Christophe Rousset) - 1998, FLAC (image+.cue) lossless


 

[Цитировать]

Marin Marais - Suitte d’un goût étranger - Christophe Coin, Christophe Rousset, Vittorio Ghielmi, Pascal Monteilhet

Жанр: Baroque music for bass viol
Страна-производитель диска: Made in Germany
Год издания диска: 1998
Издатель (лейбл): Decca Editions de L’Oiseau-Lyre
Номер по каталогу: 458 144-2
Дата записи: 1998
Аудиокодек: FLAC
Тип рипа: image+.cue
Битрейт аудио: lossless
Продолжительность: 77'36
Источник: релизер
сайт-источник/ник/другое: Saoshya and Meeting in Music blogspot
Наличие сканов в содержимом раздачи: да
Треклист:

скрытый текст

01. Marche Tartare 02:21
02. Allemande 01:59
03. Sarabande 02:29
04. La Tartarine 02:08
05. Feste Champêtre 05:06
06. Gigue la Fleselle 01:29
07. Rondeau le Bijou 04:17
08. Le Tourbillon 01:36
09. L’Uniforme 02:48
10. Allemande 01:16
11. Allemande pour le sujet, et Gigue pour la Basse 01:18
12. Allemande L’Asmatique 01:33
13. Muzette 02:21
14. Caprice ou Sonate 05:51
15. Le Labyrinthe 13:05
16. Allemande la Bizare 03:46
17. La Minaudiere 01:52
18. Allemande la Singuliere 01:48
19. L’Arabesque 03:30
20. Allemande la Superbe 04:08
21. La Reveuse 04:29
22. Marche 01:51
23. Gigue 01:24
24. Le Badinage 04:56
Исполнители:

скрытый текст

Marin Marais (1656-1728)
Suitte d’un goût étranger
Christophe Coin
Christophe Rousset
Vittorio Ghielmi
Pascal Monteilhet

Лог создания рипа

Exact Audio Copy V0.99 prebeta 4 from 23. January 2008
EAC extraction logfile from 26. August 2014, 16:44
Christophe Coin, Christophe Rousset, Vittorio Ghielmi, Pascal Monteilhet / Marin Marais - Suitte d’un goût étranger
Used drive : SONY DVD-ROM DDU1615 Adapter: 0 ID: 0
Read mode : Secure
Utilize accurate stream : Yes
Defeat audio cache : Yes
Make use of C2 pointers : No
Read offset correction : 6
Overread into Lead-In and Lead-Out : No
Fill up missing offset samples with silence : Yes
Delete leading and trailing silent blocks : No
Null samples used in CRC calculations : Yes
Used interface : Native Win32 interface for Win NT & 2000
Used output format : User Defined Encoder
Selected bitrate : 1024 kBit/s
Quality : High
Add ID3 tag : No
Command line compressor : C:\Program Files\REACT\REACT.exe
Additional command line options : REACT %o %s %d "%a" "%g" "%t" "%n" "%x" "%y" "%m" "%e" "%f" "%b" %r
TOC of the extracted CD
Track | Start | Length | Start sector | End sector
---------------------------------------------------------
1 | 0:00.00 | 2:21.63 | 0 | 10637
2 | 2:21.63 | 1:59.11 | 10638 | 19573
3 | 4:20.74 | 2:29.45 | 19574 | 30793
4 | 6:50.44 | 2:08.25 | 30794 | 40418
5 | 8:58.69 | 5:06.57 | 40419 | 63425
6 | 14:05.51 | 1:29.51 | 63426 | 70151
7 | 15:35.27 | 4:17.26 | 70152 | 89452
8 | 19:52.53 | 1:36.58 | 89453 | 96710
9 | 21:29.36 | 2:48.71 | 96711 | 109381
10 | 24:18.32 | 1:16.12 | 109382 | 115093
11 | 25:34.44 | 1:18.50 | 115094 | 120993
12 | 26:53.19 | 1:33.35 | 120994 | 128003
13 | 28:26.54 | 2:21.23 | 128004 | 138601
14 | 30:48.02 | 5:51.55 | 138602 | 164981
15 | 36:39.57 | 13:05.40 | 164982 | 223896
16 | 49:45.22 | 3:46.51 | 223897 | 240897
17 | 53:31.73 | 1:52.39 | 240898 | 249336
18 | 55:24.37 | 1:48.64 | 249337 | 257500
19 | 57:13.26 | 3:30.47 | 257501 | 273297
20 | 60:43.73 | 4:08.29 | 273298 | 291926
21 | 64:52.27 | 4:29.63 | 291927 | 312164
22 | 69:22.15 | 1:51.41 | 312165 | 320530
23 | 71:13.56 | 1:24.03 | 320531 | 326833
24 | 72:37.59 | 4:56.10 | 326834 | 349043
Range status and errors
Selected range
Filename L:\Ripped by Saoshya\Decca 458144-2 Marin Marais - Suitte d'un gout etranger (Christophe Coin, Christophe Rousset, et al.)\CDImage\Marais - Suitte d'un gout etranger - Christophe Coin.wav
Peak level 80.5 %
Range quality 99.9 %
Test CRC 62220458
Copy CRC 62220458
Copy OK
No errors occurred
AccurateRip summary
Track 1 accurately ripped (confidence 13) [921FFF61]
Track 2 accurately ripped (confidence 13) [982297E5]
Track 3 accurately ripped (confidence 13) [29986BB8]
Track 4 accurately ripped (confidence 13) [B0F11D03]
Track 5 accurately ripped (confidence 13) [3FB043CF]
Track 6 accurately ripped (confidence 13) [666B8435]
Track 7 accurately ripped (confidence 13) [907DAA85]
Track 8 accurately ripped (confidence 13) [4DC6BF84]
Track 9 accurately ripped (confidence 13) [70593152]
Track 10 accurately ripped (confidence 13) [C2A7C004]
Track 11 accurately ripped (confidence 13) [77D1D57F]
Track 12 accurately ripped (confidence 13) [7401E9A5]
Track 13 accurately ripped (confidence 12) [F9BCE9F3]
Track 14 accurately ripped (confidence 13) [97476F5B]
Track 15 accurately ripped (confidence 13) [635B78F9]
Track 16 accurately ripped (confidence 13) [89D95C0F]
Track 17 accurately ripped (confidence 13) [967FEEA1]
Track 18 accurately ripped (confidence 13) [244E9DC8]
Track 19 accurately ripped (confidence 13) [E5EE9C9D]
Track 20 accurately ripped (confidence 13) [2C8DD828]
Track 21 accurately ripped (confidence 13) [2D1FE1BD]
Track 22 accurately ripped (confidence 13) [7302914B]
Track 23 accurately ripped (confidence 13) [DD264FC6]
Track 24 accurately ripped (confidence 12) [BB85CE66]
All tracks accurately ripped
End of status report

Содержание индексной карты (.CUE)

REM GENRE Baroque
REM DATE 1998
REM DISCID 51122D18
REM COMMENT "ExactAudioCopy v0.99pb4"
PERFORMER "Christophe Coin, Christophe Rousset, Vittorio Ghielmi, Pascal Monteilhet"
TITLE "Marin Marais - Suitte d’un goût étranger"
FILE "Marais - Suitte d'un gout etranger - Christophe Coin.wav" WAVE
TRACK 01 AUDIO
TITLE "Marche Tartare"
PERFORMER "Christophe Coin, Christophe Rousset, Vittorio Ghielmi, Pascal Monteilhet"
INDEX 01 00:00:00
TRACK 02 AUDIO
TITLE "Allemande"
PERFORMER "Christophe Coin, Christophe Rousset, Vittorio Ghielmi, Pascal Monteilhet"
INDEX 00 02:20:14
INDEX 01 02:21:63
TRACK 03 AUDIO
TITLE "Sarabande"
PERFORMER "Christophe Coin, Christophe Rousset, Vittorio Ghielmi, Pascal Monteilhet"
INDEX 00 04:20:09
INDEX 01 04:20:74
TRACK 04 AUDIO
TITLE "La Tartarine"
PERFORMER "Christophe Coin, Christophe Rousset, Vittorio Ghielmi, Pascal Monteilhet"
INDEX 00 06:49:27
INDEX 01 06:50:44
TRACK 05 AUDIO
TITLE "Feste Champêtre"
PERFORMER "Christophe Coin, Christophe Rousset, Vittorio Ghielmi, Pascal Monteilhet"
INDEX 00 08:54:04
INDEX 01 08:58:69
TRACK 06 AUDIO
TITLE "Gigue la Fleselle"
PERFORMER "Christophe Coin, Christophe Rousset, Vittorio Ghielmi, Pascal Monteilhet"
INDEX 00 14:04:65
INDEX 01 14:05:51
TRACK 07 AUDIO
TITLE "Rondeau le Bijou"
PERFORMER "Christophe Coin, Christophe Rousset, Vittorio Ghielmi, Pascal Monteilhet"
INDEX 00 15:34:51
INDEX 01 15:35:27
TRACK 08 AUDIO
TITLE "Le Tourbillon"
PERFORMER "Christophe Coin, Christophe Rousset, Vittorio Ghielmi, Pascal Monteilhet"
INDEX 00 19:49:31
INDEX 01 19:52:53
TRACK 09 AUDIO
TITLE "L’Uniforme"
PERFORMER "Christophe Coin, Christophe Rousset, Vittorio Ghielmi, Pascal Monteilhet"
INDEX 00 21:28:47
INDEX 01 21:29:36
TRACK 10 AUDIO
TITLE "Allemande"
PERFORMER "Christophe Coin, Christophe Rousset, Vittorio Ghielmi, Pascal Monteilhet"
INDEX 00 24:16:00
INDEX 01 24:18:32
TRACK 11 AUDIO
TITLE "Allemande pour le sujet, et Gigue pour la Basse"
PERFORMER "Christophe Coin, Christophe Rousset, Vittorio Ghielmi, Pascal Monteilhet"
INDEX 01 25:34:44
TRACK 12 AUDIO
TITLE "Allemande L’Asmatique"
PERFORMER "Christophe Coin, Christophe Rousset, Vittorio Ghielmi, Pascal Monteilhet"
INDEX 00 26:52:33
INDEX 01 26:53:19
TRACK 13 AUDIO
TITLE "Muzette"
PERFORMER "Christophe Coin, Christophe Rousset, Vittorio Ghielmi, Pascal Monteilhet"
INDEX 00 28:25:02
INDEX 01 28:26:54
TRACK 14 AUDIO
TITLE "Caprice ou Sonate"
PERFORMER "Christophe Coin, Christophe Rousset, Vittorio Ghielmi, Pascal Monteilhet"
INDEX 00 30:45:17
INDEX 01 30:48:02
TRACK 15 AUDIO
TITLE "Le Labyrinthe"
PERFORMER "Christophe Coin, Christophe Rousset, Vittorio Ghielmi, Pascal Monteilhet"
INDEX 00 36:38:07
INDEX 01 36:39:57
TRACK 16 AUDIO
TITLE "Allemande la Bizare"
PERFORMER "Christophe Coin, Christophe Rousset, Vittorio Ghielmi, Pascal Monteilhet"
INDEX 00 49:38:29
INDEX 01 49:45:22
TRACK 17 AUDIO
TITLE "La Minaudiere"
PERFORMER "Christophe Coin, Christophe Rousset, Vittorio Ghielmi, Pascal Monteilhet"
INDEX 00 53:31:04
INDEX 01 53:31:73
TRACK 18 AUDIO
TITLE "Allemande la Singuliere"
PERFORMER "Christophe Coin, Christophe Rousset, Vittorio Ghielmi, Pascal Monteilhet"
INDEX 00 55:19:34
INDEX 01 55:24:37
TRACK 19 AUDIO
TITLE "L’Arabesque"
PERFORMER "Christophe Coin, Christophe Rousset, Vittorio Ghielmi, Pascal Monteilhet"
INDEX 00 57:12:41
INDEX 01 57:13:26
TRACK 20 AUDIO
TITLE "Allemande la Superbe"
PERFORMER "Christophe Coin, Christophe Rousset, Vittorio Ghielmi, Pascal Monteilhet"
INDEX 01 60:43:73
TRACK 21 AUDIO
TITLE "La Reveuse"
PERFORMER "Christophe Coin, Christophe Rousset, Vittorio Ghielmi, Pascal Monteilhet"
INDEX 00 64:48:53
INDEX 01 64:52:27
TRACK 22 AUDIO
TITLE "Marche"
PERFORMER "Christophe Coin, Christophe Rousset, Vittorio Ghielmi, Pascal Monteilhet"
INDEX 00 69:18:43
INDEX 01 69:22:15
TRACK 23 AUDIO
TITLE "Gigue"
PERFORMER "Christophe Coin, Christophe Rousset, Vittorio Ghielmi, Pascal Monteilhet"
INDEX 00 71:13:11
INDEX 01 71:13:56
TRACK 24 AUDIO
TITLE "Le Badinage"
PERFORMER "Christophe Coin, Christophe Rousset, Vittorio Ghielmi, Pascal Monteilhet"
INDEX 00 72:36:52
INDEX 01 72:37:59



Показать сообщения:    

Текущее время: 08-Дек 17:21

Часовой пояс: UTC + 3


Вы не можете начинать темы
Вы не можете отвечать на сообщения
Вы не можете редактировать свои сообщения
Вы не можете удалять свои сообщения
Вы не можете голосовать в опросах
Вы не можете прикреплять файлы к сообщениям
Вы не можете скачивать файлы