(Baroque pieces de viole) Marin Marais - Pieces de Viole, Cinquieme livre [1725] - Premiere partie [2CD] (Jean-Louis Charbonnier) - 1999, FLAC (image+.cue) lossless


 

[Цитировать]

Marin Marais (1656-1728)Pièces de Viole, Cinquième livre [1725] - Première partie

Жанр: Baroque pieces de viole
Страна-производитель диска: Made in France
Год издания диска: 1999
Издатель (лейбл): ARION S.A. / Pierre Verany
Номер по каталогу: PV799091/92
Дата записи: 1999
Аудиокодек: FLAC
Тип рипа: image+.cue
Битрейт аудио: lossless
Продолжительность: 65'21 + 68'54
Источник: релизер
сайт-источник/ник/другое: Saoshya and Meeting in Music blogspot
Наличие сканов в содержимом раздачи: да
Треклист:

скрытый текст

CD1

скрытый текст

01. Première suite en la mineur - Prélude en harpègement rondement 16 01:12
02. Prélude, Le Soligni lent 1 02:23
03. Allemande, La Facile 2 01:42
04. Sarabande 3 03:59
05. La Mariée 4 01:17
06. Gavotte 5 01:42
07. Gigue gay 6 01:25
08. Menuets 7-8 02:25
09. La Sincope gayment 9 01:11
10. Petit Caprice légèrement 10 00:57
11. Rondeau 11 06:42
12. La Bagatelle légèrement 12 00:41
13. Fantaisie 12 01:46
14. Grande Gavotte 13 01:48
15. Gigue, La Mutine légèrement 14 01:30
16. Rondeau 15 03:28
17. Prélude 17 03:02
18. Deuxième suite en la majeur - Allemande gay 18 01:52
19. Sarabande 19 02:29
20. Gigue très gay 20 00:59
21. Marche à la Turque fièrement 21 03:14
22. Gavotte 22 01:29
23. Menuets 23-24-25 02:24
24. Air Gracieux, La Petite Bru 26 03:34
25. Fantaisie légèrement 27 01:50
26. Grand Rondeau gay 28 03:52
27. La Babillarde et son double 29-30 03:17
28. Chaconne 31 02:59
CD2

скрытый текст

01. Troisième suite en fa majeur - Prélude en harpègement Rondement 46 02:03
02. Prélude 32 01:09
03. Allemande, La Bois Guillaume 33 01:59
04. Sarabande 34 03:14
05. Gigue, La Demoi 35 01:37
06. Menuet 36-37 et double 38 02:38
07. Gavotte 39 01:20
08. Rondeau Paysan 40 03:43
09. Rondeau Le Doucereux 41 08:31
10. Idée Grotesque gay 42 et son double 43 02:29
11. Les Forgerons gay 44 01:38
12. Le Toucher du Clavecin gay 45 02:49
13. Quatrième suite en ré majeur - Prélude 47 01:39
14. Allemande, La Flatteuse 48 01:48
15. Sarabande 49 03:30
16. Gigue 50 01:30
17. Gavotte 51 01:54
18. Menuets 52-53 et double 54 02:10
19. La Fromental 55 et double 02:49
20. Chaconne 56 03:38
21. Variations sur une basse contrainte 57 03:59
22. Fantaisie et son double 58 01:50
23. Allemande, La Dornel 59 02:30
24. Allemande du goût des anciens légèrement 60 02:02
25. Caprice 61 02:25
26. Rondeau, Le Brillant légèrement 62 03:48
Исполнители:

скрытый текст

Marin Marais (1656-1728)
Pièces de Viole, Cinquième livre [1725], Première partie
Jean-Louis Charbonnier
Paul Rousseau
Mauricio Buraglia
Pierre Trocellier
Лог создания рипа
CD1

скрытый текст

Exact Audio Copy V0.99 prebeta 4 from 23. January 2008
EAC extraction logfile from 24. August 2014, 20:53
Jean-Louis Charbonnier, Paul Rousseau, Mauricio Buraglia, Pierre Trocellier / Marin Marais - Pièces de Viole, Cinquième livre [1725], Première partie CD1
Used drive : SONY DVD-ROM DDU1615 Adapter: 0 ID: 0
Read mode : Secure
Utilize accurate stream : Yes
Defeat audio cache : Yes
Make use of C2 pointers : No
Read offset correction : 6
Overread into Lead-In and Lead-Out : No
Fill up missing offset samples with silence : Yes
Delete leading and trailing silent blocks : No
Null samples used in CRC calculations : Yes
Used interface : Native Win32 interface for Win NT & 2000
Used output format : User Defined Encoder
Selected bitrate : 1024 kBit/s
Quality : High
Add ID3 tag : No
Command line compressor : C:\Program Files\REACT\REACT.exe
Additional command line options : REACT %o %s %d "%a" "%g" "%t" "%n" "%x" "%y" "%m" "%e" "%f" "%b" %r
TOC of the extracted CD
Track | Start | Length | Start sector | End sector
---------------------------------------------------------
1 | 0:00.00 | 1:12.25 | 0 | 5424
2 | 1:12.25 | 2:23.22 | 5425 | 16171
3 | 3:35.47 | 1:42.18 | 16172 | 23839
4 | 5:17.65 | 3:59.12 | 23840 | 41776
5 | 9:17.02 | 1:17.10 | 41777 | 47561
6 | 10:34.12 | 1:42.48 | 47562 | 55259
7 | 12:16.60 | 1:25.45 | 55260 | 61679
8 | 13:42.30 | 2:25.27 | 61680 | 72581
9 | 16:07.57 | 1:11.43 | 72582 | 77949
10 | 17:19.25 | 0:57.37 | 77950 | 82261
11 | 18:16.62 | 6:42.58 | 82262 | 112469
12 | 24:59.45 | 0:41.22 | 112470 | 115566
13 | 25:40.67 | 1:46.70 | 115567 | 123586
14 | 27:27.62 | 1:48.60 | 123587 | 131746
15 | 29:16.47 | 1:30.25 | 131747 | 138521
16 | 30:46.72 | 3:28.13 | 138522 | 154134
17 | 34:15.10 | 3:02.60 | 154135 | 167844
18 | 37:17.70 | 1:52.00 | 167845 | 176244
19 | 39:09.70 | 2:29.17 | 176245 | 187436
20 | 41:39.12 | 0:59.05 | 187437 | 191866
21 | 42:38.17 | 3:14.17 | 191867 | 206433
22 | 45:52.34 | 1:29.18 | 206434 | 213126
23 | 47:21.52 | 2:24.57 | 213127 | 223983
24 | 49:46.34 | 3:34.31 | 223984 | 240064
25 | 53:20.65 | 1:50.00 | 240065 | 248314
26 | 55:10.65 | 3:52.62 | 248315 | 265776
27 | 59:03.52 | 3:17.60 | 265777 | 280611
28 | 62:21.37 | 2:59.40 | 280612 | 294076
Range status and errors
Selected range
Filename L:\Ripped by Saoshya\Pierre Verany PV799091-92 - Marin Marais - Pieces de Viole, 5eme livre, 1ere partie (J.-L. Charbonnier, et al.)\CDImage 1\Marais - Pieces de Viole, 5eme Livre, 1ere partie - J.-L. Charbonnier CD1.wav
Peak level 71.4 %
Range quality 99.9 %
Test CRC 553C206D
Copy CRC 553C206D
Copy OK
No errors occurred
AccurateRip summary
Track 1 cannot be verified as accurate (confidence 4) [F735B49A], AccurateRip returned [1E45390D]
Track 2 cannot be verified as accurate (confidence 4) [9DE607EF], AccurateRip returned [99AD35CB]
Track 3 cannot be verified as accurate (confidence 4) [F193AEF1], AccurateRip returned [DA4AD5F7]
Track 4 cannot be verified as accurate (confidence 4) [FB94BA57], AccurateRip returned [0BC4D19B]
Track 5 cannot be verified as accurate (confidence 4) [FA3D205B], AccurateRip returned [CBB80E58]
Track 6 cannot be verified as accurate (confidence 4) [EB00216F], AccurateRip returned [82F23151]
Track 7 cannot be verified as accurate (confidence 4) [BAA19FE4], AccurateRip returned [5239BC88]
Track 8 cannot be verified as accurate (confidence 4) [4AC6480A], AccurateRip returned [87D3FFBB]
Track 9 cannot be verified as accurate (confidence 4) [DF8C97AD], AccurateRip returned [A9B2E050]
Track 10 cannot be verified as accurate (confidence 4) [75BD4068], AccurateRip returned [1690B523]
Track 11 cannot be verified as accurate (confidence 4) [F5C635D9], AccurateRip returned [C0919938]
Track 12 cannot be verified as accurate (confidence 4) [80BD7CDB], AccurateRip returned [BCCDB5C9]
Track 13 cannot be verified as accurate (confidence 4) [E22036B3], AccurateRip returned [C3E1FD40]
Track 14 cannot be verified as accurate (confidence 4) [87023DA5], AccurateRip returned [203FF2B7]
Track 15 cannot be verified as accurate (confidence 4) [3FCE1F46], AccurateRip returned [359BCC72]
Track 16 cannot be verified as accurate (confidence 4) [5E1A9082], AccurateRip returned [CCD82C61]
Track 17 cannot be verified as accurate (confidence 4) [DCBEAEE2], AccurateRip returned [4F42BD32]
Track 18 cannot be verified as accurate (confidence 4) [A0AD94B0], AccurateRip returned [CFC3D161]
Track 19 cannot be verified as accurate (confidence 4) [65AC88EA], AccurateRip returned [9B3E186A]
Track 20 cannot be verified as accurate (confidence 4) [D766F15A], AccurateRip returned [CEF5F7EF]
Track 21 cannot be verified as accurate (confidence 4) [8001B7DB], AccurateRip returned [8915134E]
Track 22 cannot be verified as accurate (confidence 4) [94A8FD53], AccurateRip returned [FEA98E38]
Track 23 cannot be verified as accurate (confidence 4) [35B29326], AccurateRip returned [5B6AA417]
Track 24 cannot be verified as accurate (confidence 4) [3CCAF8A8], AccurateRip returned [81EECEA8]
Track 25 cannot be verified as accurate (confidence 4) [9663D084], AccurateRip returned [A2B326D0]
Track 26 cannot be verified as accurate (confidence 4) [63D35F00], AccurateRip returned [DE3112F9]
Track 27 cannot be verified as accurate (confidence 4) [EAAF8815], AccurateRip returned [6B64F370]
Track 28 cannot be verified as accurate (confidence 4) [1B040FFB], AccurateRip returned [EE5E34D4]
No tracks could be verified as accurate
You may have a different pressing from the one(s) in the database
End of status report
CD2

скрытый текст

Exact Audio Copy V0.99 prebeta 4 from 23. January 2008
EAC extraction logfile from 24. August 2014, 21:15
Jean-Louis Charbonnier, Paul Rousseau, Mauricio Buraglia, Pierre Trocellier / Marin Marais - Pièces de Viole, Cinquième livre [1725], Première partie CD2
Used drive : SONY DVD-ROM DDU1615 Adapter: 0 ID: 0
Read mode : Secure
Utilize accurate stream : Yes
Defeat audio cache : Yes
Make use of C2 pointers : No
Read offset correction : 6
Overread into Lead-In and Lead-Out : No
Fill up missing offset samples with silence : Yes
Delete leading and trailing silent blocks : No
Null samples used in CRC calculations : Yes
Used interface : Native Win32 interface for Win NT & 2000
Used output format : User Defined Encoder
Selected bitrate : 1024 kBit/s
Quality : High
Add ID3 tag : No
Command line compressor : C:\Program Files\REACT\REACT.exe
Additional command line options : REACT %o %s %d "%a" "%g" "%t" "%n" "%x" "%y" "%m" "%e" "%f" "%b" %r
TOC of the extracted CD
Track | Start | Length | Start sector | End sector
---------------------------------------------------------
1 | 0:00.00 | 2:03.67 | 0 | 9291
2 | 2:03.67 | 1:09.55 | 9292 | 14521
3 | 3:13.47 | 1:59.35 | 14522 | 23481
4 | 5:13.07 | 3:14.13 | 23482 | 38044
5 | 8:27.20 | 1:37.02 | 38045 | 45321
6 | 10:04.22 | 2:38.33 | 45322 | 57204
7 | 12:42.55 | 1:20.25 | 57205 | 63229
8 | 14:03.05 | 3:43.62 | 63230 | 80016
9 | 17:46.67 | 8:31.00 | 80017 | 118341
10 | 26:17.67 | 2:29.62 | 118342 | 129578
11 | 28:47.54 | 1:38.63 | 129579 | 136991
12 | 30:26.42 | 2:49.40 | 136992 | 149706
13 | 33:16.07 | 1:39.33 | 149707 | 157164
14 | 34:55.40 | 1:48.12 | 157165 | 165276
15 | 36:43.52 | 3:30.15 | 165277 | 181041
16 | 40:13.67 | 1:30.00 | 181042 | 187791
17 | 41:43.67 | 1:54.15 | 187792 | 196356
18 | 43:38.07 | 2:10.05 | 196357 | 206111
19 | 45:48.12 | 2:49.63 | 206112 | 218849
20 | 48:38.00 | 3:38.52 | 218850 | 235251
21 | 52:16.52 | 3:59.40 | 235252 | 253216
22 | 56:16.17 | 1:50.38 | 253217 | 261504
23 | 58:06.55 | 2:30.60 | 261505 | 272814
24 | 60:37.40 | 2:02.42 | 272815 | 282006
25 | 62:40.07 | 2:25.28 | 282007 | 292909
26 | 65:05.35 | 3:48.50 | 292910 | 310059
Range status and errors
Selected range
Filename L:\Ripped by Saoshya\Pierre Verany PV799091-92 - Marin Marais - Pieces de Viole, 5eme livre, 1ere partie (J.-L. Charbonnier, et al.)\CDImage 2\Marais - Pieces de Viole, 5eme Livre, 1ere partie - J.-L. Charbonnier CD2.wav
Peak level 65.7 %
Range quality 99.9 %
Test CRC F14E2D0C
Copy CRC F14E2D0C
Copy OK
No errors occurred
AccurateRip summary
Track 1 cannot be verified as accurate (confidence 4) [42D282B2], AccurateRip returned [8E508451]
Track 2 cannot be verified as accurate (confidence 4) [837F1032], AccurateRip returned [ADEC5092]
Track 3 cannot be verified as accurate (confidence 4) [57416331], AccurateRip returned [536A56EB]
Track 4 cannot be verified as accurate (confidence 4) [677BEC9F], AccurateRip returned [B9A6A90F]
Track 5 cannot be verified as accurate (confidence 4) [7783EDA8], AccurateRip returned [EFEEC550]
Track 6 cannot be verified as accurate (confidence 4) [4ADA2901], AccurateRip returned [35573CFB]
Track 7 cannot be verified as accurate (confidence 4) [22655939], AccurateRip returned [DB7621EA]
Track 8 cannot be verified as accurate (confidence 4) [3E54EB3A], AccurateRip returned [1EBB977C]
Track 9 cannot be verified as accurate (confidence 4) [F3109549], AccurateRip returned [4BC8A272]
Track 10 cannot be verified as accurate (confidence 4) [122A193C], AccurateRip returned [35E348F1]
Track 11 cannot be verified as accurate (confidence 4) [C5BB89EC], AccurateRip returned [35CA0D30]
Track 12 cannot be verified as accurate (confidence 4) [7FF1542A], AccurateRip returned [51D1D2E2]
Track 13 cannot be verified as accurate (confidence 4) [93A54D1C], AccurateRip returned [37AC8036]
Track 14 cannot be verified as accurate (confidence 4) [82015214], AccurateRip returned [FEC645DA]
Track 15 cannot be verified as accurate (confidence 4) [9DCCF4DE], AccurateRip returned [7255EBC2]
Track 16 cannot be verified as accurate (confidence 4) [F8B29D21], AccurateRip returned [819FCB02]
Track 17 cannot be verified as accurate (confidence 4) [1BEAB1BE], AccurateRip returned [3617B557]
Track 18 cannot be verified as accurate (confidence 4) [D08BB05B], AccurateRip returned [B8165205]
Track 19 cannot be verified as accurate (confidence 4) [C5B43AAA], AccurateRip returned [CCA063AD]
Track 20 cannot be verified as accurate (confidence 4) [331D3B8E], AccurateRip returned [C58AFC54]
Track 21 cannot be verified as accurate (confidence 4) [4E0E0270], AccurateRip returned [66B854AA]
Track 22 cannot be verified as accurate (confidence 4) [7C46D80E], AccurateRip returned [F1E46463]
Track 23 cannot be verified as accurate (confidence 4) [AB96E1BD], AccurateRip returned [89D3199E]
Track 24 cannot be verified as accurate (confidence 4) [E1E1240C], AccurateRip returned [09589800]
Track 25 cannot be verified as accurate (confidence 4) [C0689CA7], AccurateRip returned [9229F1D1]
Track 26 cannot be verified as accurate (confidence 4) [799DD34D], AccurateRip returned [34F7CC2F]
No tracks could be verified as accurate
You may have a different pressing from the one(s) in the database
End of status report
Содержание индексной карты (.CUE)
CD1

скрытый текст

REM GENRE Baroque
REM DATE 1999
REM DISCID 960F511C
REM COMMENT "ExactAudioCopy v0.99pb4"
PERFORMER "Jean-Louis Charbonnier, Paul Rousseau, Mauricio Buraglia, Pierre Trocellier"
TITLE "Marin Marais - Pièces de Viole, Cinquième livre [1725], Première partie CD1"
FILE "Marais - Pieces de Viole, 5eme Livre, 1ere partie - J.-L. Charbonnier CD1.wav" WAVE
TRACK 01 AUDIO
TITLE "Première suite en la mineur - Prélude en harpègement rondement 16"
PERFORMER "Jean-Louis Charbonnier, Paul Rousseau, Mauricio Buraglia, Pierre Trocellier"
INDEX 01 00:00:00
TRACK 02 AUDIO
TITLE "Première suite en la mineur - Prélude, Le Soligni lent 1"
PERFORMER "Jean-Louis Charbonnier, Paul Rousseau, Mauricio Buraglia, Pierre Trocellier"
INDEX 01 01:12:25
TRACK 03 AUDIO
TITLE "Première suite en la mineur - Allemande, La Facile 2"
PERFORMER "Jean-Louis Charbonnier, Paul Rousseau, Mauricio Buraglia, Pierre Trocellier"
INDEX 00 03:34:42
INDEX 01 03:35:47
TRACK 04 AUDIO
TITLE "Première suite en la mineur - Sarabande 3"
PERFORMER "Jean-Louis Charbonnier, Paul Rousseau, Mauricio Buraglia, Pierre Trocellier"
INDEX 01 05:17:65
TRACK 05 AUDIO
TITLE "Première suite en la mineur - La Mariée 4"
PERFORMER "Jean-Louis Charbonnier, Paul Rousseau, Mauricio Buraglia, Pierre Trocellier"
INDEX 01 09:17:02
TRACK 06 AUDIO
TITLE "Première suite en la mineur - Gavotte 5"
PERFORMER "Jean-Louis Charbonnier, Paul Rousseau, Mauricio Buraglia, Pierre Trocellier"
INDEX 01 10:34:12
TRACK 07 AUDIO
TITLE "Première suite en la mineur - Gigue gay 6"
PERFORMER "Jean-Louis Charbonnier, Paul Rousseau, Mauricio Buraglia, Pierre Trocellier"
INDEX 01 12:16:60
TRACK 08 AUDIO
TITLE "Première suite en la mineur - Menuets 7-8"
PERFORMER "Jean-Louis Charbonnier, Paul Rousseau, Mauricio Buraglia, Pierre Trocellier"
INDEX 00 13:40:05
INDEX 01 13:42:30
TRACK 09 AUDIO
TITLE "Première suite en la mineur - La Sincope gayment 9"
PERFORMER "Jean-Louis Charbonnier, Paul Rousseau, Mauricio Buraglia, Pierre Trocellier"
INDEX 01 16:07:57
TRACK 10 AUDIO
TITLE "Première suite en la mineur - Petit Caprice légèrement 10"
PERFORMER "Jean-Louis Charbonnier, Paul Rousseau, Mauricio Buraglia, Pierre Trocellier"
INDEX 01 17:19:25
TRACK 11 AUDIO
TITLE "Première suite en la mineur - Rondeau 11"
PERFORMER "Jean-Louis Charbonnier, Paul Rousseau, Mauricio Buraglia, Pierre Trocellier"
INDEX 01 18:16:62
TRACK 12 AUDIO
TITLE "Première suite en la mineur - La Bagatelle légèrement 12"
PERFORMER "Jean-Louis Charbonnier, Paul Rousseau, Mauricio Buraglia, Pierre Trocellier"
INDEX 00 24:58:20
INDEX 01 24:59:45
TRACK 13 AUDIO
TITLE "Première suite en la mineur - Fantaisie 12"
PERFORMER "Jean-Louis Charbonnier, Paul Rousseau, Mauricio Buraglia, Pierre Trocellier"
INDEX 01 25:40:67
TRACK 14 AUDIO
TITLE "Première suite en la mineur - Grande Gavotte 13"
PERFORMER "Jean-Louis Charbonnier, Paul Rousseau, Mauricio Buraglia, Pierre Trocellier"
INDEX 01 27:27:62
TRACK 15 AUDIO
TITLE "Première suite en la mineur - Gigue, La Mutine légèrement 14"
PERFORMER "Jean-Louis Charbonnier, Paul Rousseau, Mauricio Buraglia, Pierre Trocellier"
INDEX 01 29:16:47
TRACK 16 AUDIO
TITLE "Première suite en la mineur - Rondeau 15"
PERFORMER "Jean-Louis Charbonnier, Paul Rousseau, Mauricio Buraglia, Pierre Trocellier"
INDEX 01 30:46:72
TRACK 17 AUDIO
TITLE "Deuxième suite en la majeur - Prélude 17"
PERFORMER "Jean-Louis Charbonnier, Paul Rousseau, Mauricio Buraglia, Pierre Trocellier"
INDEX 00 34:03:20
INDEX 01 34:15:10
TRACK 18 AUDIO
TITLE "Deuxième suite en la majeur - Allemande gay 18"
PERFORMER "Jean-Louis Charbonnier, Paul Rousseau, Mauricio Buraglia, Pierre Trocellier"
INDEX 01 37:17:70
TRACK 19 AUDIO
TITLE "Deuxième suite en la majeur - Sarabande 19"
PERFORMER "Jean-Louis Charbonnier, Paul Rousseau, Mauricio Buraglia, Pierre Trocellier"
INDEX 01 39:09:70
TRACK 20 AUDIO
TITLE "Deuxième suite en la majeur - Gigue très gay 20"
PERFORMER "Jean-Louis Charbonnier, Paul Rousseau, Mauricio Buraglia, Pierre Trocellier"
INDEX 01 41:39:12
TRACK 21 AUDIO
TITLE "Deuxième suite en la majeur - Marche à la Turque fièrement 21"
PERFORMER "Jean-Louis Charbonnier, Paul Rousseau, Mauricio Buraglia, Pierre Trocellier"
INDEX 01 42:38:17
TRACK 22 AUDIO
TITLE "Deuxième suite en la majeur - Gavotte 22"
PERFORMER "Jean-Louis Charbonnier, Paul Rousseau, Mauricio Buraglia, Pierre Trocellier"
INDEX 01 45:52:34
TRACK 23 AUDIO
TITLE "Deuxième suite en la majeur - Menuets 23-24-25"
PERFORMER "Jean-Louis Charbonnier, Paul Rousseau, Mauricio Buraglia, Pierre Trocellier"
INDEX 01 47:21:52
TRACK 24 AUDIO
TITLE "Deuxième suite en la majeur - Air Gracieux, La Petite Bru 26"
PERFORMER "Jean-Louis Charbonnier, Paul Rousseau, Mauricio Buraglia, Pierre Trocellier"
INDEX 01 49:46:34
TRACK 25 AUDIO
TITLE "Deuxième suite en la majeur - Fantaisie légèrement 27"
PERFORMER "Jean-Louis Charbonnier, Paul Rousseau, Mauricio Buraglia, Pierre Trocellier"
INDEX 01 53:20:65
TRACK 26 AUDIO
TITLE "Deuxième suite en la majeur - Grand Rondeau gay 28"
PERFORMER "Jean-Louis Charbonnier, Paul Rousseau, Mauricio Buraglia, Pierre Trocellier"
INDEX 01 55:10:65
TRACK 27 AUDIO
TITLE "Deuxième suite en la majeur - La Babillarde et son double 29-30"
PERFORMER "Jean-Louis Charbonnier, Paul Rousseau, Mauricio Buraglia, Pierre Trocellier"
INDEX 01 59:03:52
TRACK 28 AUDIO
TITLE "Deuxième suite en la majeur - Chaconne 31"
PERFORMER "Jean-Louis Charbonnier, Paul Rousseau, Mauricio Buraglia, Pierre Trocellier"
INDEX 01 62:21:37
CD2

скрытый текст

REM GENRE Baroque
REM DATE 1999
REM DISCID 9210261A
REM COMMENT "ExactAudioCopy v0.99pb4"
PERFORMER "Jean-Louis Charbonnier, Paul Rousseau, Mauricio Buraglia, Pierre Trocellier"
TITLE "Marin Marais - Pièces de Viole, Cinquième livre [1725], Première partie CD2"
FILE "Marais - Pieces de Viole, 5eme Livre, 1ere partie - J.-L. Charbonnier CD2.wav" WAVE
TRACK 01 AUDIO
TITLE "Troisième suite en fa majeur - Prélude en harpègement Rondement 46"
PERFORMER "Jean-Louis Charbonnier, Paul Rousseau, Mauricio Buraglia, Pierre Trocellier"
INDEX 01 00:00:00
TRACK 02 AUDIO
TITLE "Troisième suite en fa majeur - Prélude 32"
PERFORMER "Jean-Louis Charbonnier, Paul Rousseau, Mauricio Buraglia, Pierre Trocellier"
INDEX 01 02:03:67
TRACK 03 AUDIO
TITLE "Troisième suite en fa majeur - Allemande, La Bois Guillaume 33"
PERFORMER "Jean-Louis Charbonnier, Paul Rousseau, Mauricio Buraglia, Pierre Trocellier"
INDEX 01 03:13:47
TRACK 04 AUDIO
TITLE "Troisième suite en fa majeur - Sarabande 34"
PERFORMER "Jean-Louis Charbonnier, Paul Rousseau, Mauricio Buraglia, Pierre Trocellier"
INDEX 01 05:13:07
TRACK 05 AUDIO
TITLE "Troisième suite en fa majeur - Gigue, La Demoi 35"
PERFORMER "Jean-Louis Charbonnier, Paul Rousseau, Mauricio Buraglia, Pierre Trocellier"
INDEX 01 08:27:20
TRACK 06 AUDIO
TITLE "Troisième suite en fa majeur - Menuet 36-37 et double 38"
PERFORMER "Jean-Louis Charbonnier, Paul Rousseau, Mauricio Buraglia, Pierre Trocellier"
INDEX 00 10:01:60
INDEX 01 10:04:22
TRACK 07 AUDIO
TITLE "Troisième suite en fa majeur - Gavotte 39"
PERFORMER "Jean-Louis Charbonnier, Paul Rousseau, Mauricio Buraglia, Pierre Trocellier"
INDEX 01 12:42:55
TRACK 08 AUDIO
TITLE "Troisième suite en fa majeur - Rondeau Paysan 40"
PERFORMER "Jean-Louis Charbonnier, Paul Rousseau, Mauricio Buraglia, Pierre Trocellier"
INDEX 00 14:01:10
INDEX 01 14:03:05
TRACK 09 AUDIO
TITLE "Troisième suite en fa majeur - Rondeau Le Doucereux 41"
PERFORMER "Jean-Louis Charbonnier, Paul Rousseau, Mauricio Buraglia, Pierre Trocellier"
INDEX 00 17:44:45
INDEX 01 17:46:67
TRACK 10 AUDIO
TITLE "Troisième suite en fa majeur - Idée Grotesque gay 42 et son double 43"
PERFORMER "Jean-Louis Charbonnier, Paul Rousseau, Mauricio Buraglia, Pierre Trocellier"
INDEX 00 26:15:62
INDEX 01 26:17:67
TRACK 11 AUDIO
TITLE "Troisième suite en fa majeur - Les Forgerons gay 44"
PERFORMER "Jean-Louis Charbonnier, Paul Rousseau, Mauricio Buraglia, Pierre Trocellier"
INDEX 00 28:45:30
INDEX 01 28:47:54
TRACK 12 AUDIO
TITLE "Troisième suite en fa majeur - Le Toucher du Clavecin gay 45"
PERFORMER "Jean-Louis Charbonnier, Paul Rousseau, Mauricio Buraglia, Pierre Trocellier"
INDEX 00 30:24:47
INDEX 01 30:26:42
TRACK 13 AUDIO
TITLE "Quatrième suite en ré majeur - Prélude 47"
PERFORMER "Jean-Louis Charbonnier, Paul Rousseau, Mauricio Buraglia, Pierre Trocellier"
INDEX 00 33:03:50
INDEX 01 33:16:07
TRACK 14 AUDIO
TITLE "Quatrième suite en ré majeur - Allemande, La Flatteuse 48"
PERFORMER "Jean-Louis Charbonnier, Paul Rousseau, Mauricio Buraglia, Pierre Trocellier"
INDEX 01 34:55:40
TRACK 15 AUDIO
TITLE "Quatrième suite en ré majeur - Sarabande 49"
PERFORMER "Jean-Louis Charbonnier, Paul Rousseau, Mauricio Buraglia, Pierre Trocellier"
INDEX 01 36:43:52
TRACK 16 AUDIO
TITLE "Quatrième suite en ré majeur - Gigue 50"
PERFORMER "Jean-Louis Charbonnier, Paul Rousseau, Mauricio Buraglia, Pierre Trocellier"
INDEX 01 40:13:67
TRACK 17 AUDIO
TITLE "Quatrième suite en ré majeur - Gavotte 51"
PERFORMER "Jean-Louis Charbonnier, Paul Rousseau, Mauricio Buraglia, Pierre Trocellier"
INDEX 00 41:41:25
INDEX 01 41:43:67
TRACK 18 AUDIO
TITLE "Quatrième suite en ré majeur - Menuets 52-53 et double 54"
PERFORMER "Jean-Louis Charbonnier, Paul Rousseau, Mauricio Buraglia, Pierre Trocellier"
INDEX 00 43:36:40
INDEX 01 43:38:07
TRACK 19 AUDIO
TITLE "Quatrième suite en ré majeur - La Fromental 55 et double"
PERFORMER "Jean-Louis Charbonnier, Paul Rousseau, Mauricio Buraglia, Pierre Trocellier"
INDEX 00 45:45:70
INDEX 01 45:48:12
TRACK 20 AUDIO
TITLE "Quatrième suite en ré majeur - Chaconne 56"
PERFORMER "Jean-Louis Charbonnier, Paul Rousseau, Mauricio Buraglia, Pierre Trocellier"
INDEX 00 48:36:25
INDEX 01 48:38:00
TRACK 21 AUDIO
TITLE "Quatrième suite en ré majeur - Variations sur une basse contrainte 57"
PERFORMER "Jean-Louis Charbonnier, Paul Rousseau, Mauricio Buraglia, Pierre Trocellier"
INDEX 00 52:14:60
INDEX 01 52:16:52
TRACK 22 AUDIO
TITLE "Quatrième suite en ré majeur - Fantaisie et son double 58"
PERFORMER "Jean-Louis Charbonnier, Paul Rousseau, Mauricio Buraglia, Pierre Trocellier"
INDEX 00 56:12:40
INDEX 01 56:16:17
TRACK 23 AUDIO
TITLE "Quatrième suite en ré majeur - Allemande, La Dornel 59"
PERFORMER "Jean-Louis Charbonnier, Paul Rousseau, Mauricio Buraglia, Pierre Trocellier"
INDEX 00 58:04:47
INDEX 01 58:06:55
TRACK 24 AUDIO
TITLE "Quatrième suite en ré majeur - Allemande du goût des anciens légèrement 60"
PERFORMER "Jean-Louis Charbonnier, Paul Rousseau, Mauricio Buraglia, Pierre Trocellier"
INDEX 00 60:35:20
INDEX 01 60:37:40
TRACK 25 AUDIO
TITLE "Quatrième suite en ré majeur - Caprice 61"
PERFORMER "Jean-Louis Charbonnier, Paul Rousseau, Mauricio Buraglia, Pierre Trocellier"
INDEX 00 62:37:32
INDEX 01 62:40:07
TRACK 26 AUDIO
TITLE "Quatrième suite en ré majeur - Rondeau, Le Brillant légèrement 62"
PERFORMER "Jean-Louis Charbonnier, Paul Rousseau, Mauricio Buraglia, Pierre Trocellier"
INDEX 00 65:02:37
INDEX 01 65:05:35



Показать сообщения:    

Текущее время: 19-Янв 22:16

Часовой пояс: UTC + 3


Вы не можете начинать темы
Вы не можете отвечать на сообщения
Вы не можете редактировать свои сообщения
Вы не можете удалять свои сообщения
Вы не можете голосовать в опросах
Вы не можете прикреплять файлы к сообщениям
Вы не можете скачивать файлы