(Baroque pieces de viole) Marin Marais - Les Voix Humaines (Hille Perl, Lee Santana) - 2007, APE (image+.cue) lossless


 

[Цитировать]

Marais: Les Voix Humaines / Hille Perl

Жанр: Baroque pieces de viole
Страна-производитель диска: Made in the EU
Год издания диска: 2007
Издатель (лейбл): Sony BMG Music Entertainment / deutsche harmonia mundi
Номер по каталогу: 886960071622
Дата записи: 2007
Аудиокодек: APE
Тип рипа: image+.cue
Битрейт аудио: lossless
Продолжительность: 73'22
Источник: релизер
сайт-источник/ник/другое: knmn
Наличие сканов в содержимом раздачи: да
Треклист:

скрытый текст

01 Les voix humaines (2e livre) 06:02
02 Le Badinage (4e livre) 03:47
03 Chaconne (2e livre) 04:07
04 Le Labyrinthe (4e livre) 10:25
05 Cloches ou Carillon (2e livre) 04:41
06 L'oraison funebre 05:26
07 Tombeau pour Monsieur Lully 06:51
08 Feste champetre (4e livre) 04:16
09 Cascades 04:44
10 Rondeau le bijou (4e livre) 02:46
11 Le tourbillon (4e livre) 01:51
12 Folies d'Espagne 05:17
13 L'arabesque (4e livre) 05:06
14 La reveuse (4e livre) 07:06
Исполнители:

скрытый текст

Marin Marais
Les Voix Humaines
Hille Perl - viola da gamba
Lee Santana - theorbo

Лог создания рипа

Exact Audio Copy V0.99 prebeta 3 from 28. July 2007
EAC extraction logfile from 19. May 2008, 17:19
Hille Perl / Les Voix Humaines
Used drive : PLEXTOR DVDR PX-810SA Adapter: 1 ID: 1
Read mode : Secure
Utilize accurate stream : Yes
Defeat audio cache : Yes
Make use of C2 pointers : No
Read offset correction : 48
Overread into Lead-In and Lead-Out : No
Fill up missing offset samples with silence : Yes
Delete leading and trailing silent blocks : No
Null samples used in CRC calculations : Yes
Used interface : Installed external ASPI interface
Used output format : Monkey's Audio Lossless Encoder
Selected bitrate : High Lossless Compression
Quality : High
Add ID3 tag : Yes
Command line compressor : C:\Program Files\Monkey's Audio\MAC.exe
Additional command line options : %s %d -c3000
TOC of the extracted CD
Track | Start | Length | Start sector | End sector
---------------------------------------------------------
1 | 0:00.00 | 6:01.61 | 0 | 27135
2 | 6:01.61 | 3:46.70 | 27136 | 44155
3 | 9:48.56 | 4:06.64 | 44156 | 62669
4 | 13:55.45 | 10:25.05 | 62670 | 109549
5 | 24:20.50 | 4:41.13 | 109550 | 130637
6 | 29:01.63 | 5:26.21 | 130638 | 155108
7 | 34:28.09 | 6:50.54 | 155109 | 185912
8 | 41:18.63 | 4:16.26 | 185913 | 205138
9 | 45:35.14 | 4:43.62 | 205139 | 226425
10 | 50:19.01 | 2:45.49 | 226426 | 238849
11 | 53:04.50 | 1:50.62 | 238850 | 247161
12 | 54:55.37 | 5:17.26 | 247162 | 270962
13 | 60:12.63 | 5:05.49 | 270963 | 293886
14 | 65:18.37 | 7:05.30 | 293887 | 325791
Range status and errors
Selected range
Filename G:\MARAIS\CDImage.wav
Peak level 69.3 %
Range quality 100.0 %
Copy CRC D71DF02E
Copy OK
No errors occurred
AccurateRip summary
Track 1 accurately ripped (confidence 2) [580B3409]
Track 2 accurately ripped (confidence 2) [B2D0B802]
Track 3 accurately ripped (confidence 2) [D0E2AC6D]
Track 4 accurately ripped (confidence 2) [4E0108A2]
Track 5 accurately ripped (confidence 2) [1402B03E]
Track 6 accurately ripped (confidence 2) [FFFACF6F]
Track 7 accurately ripped (confidence 2) [5CF0EA62]
Track 8 accurately ripped (confidence 2) [177AFF18]
Track 9 accurately ripped (confidence 2) [5CF0C360]
Track 10 accurately ripped (confidence 2) [EF56653A]
Track 11 accurately ripped (confidence 2) [AF866E69]
Track 12 accurately ripped (confidence 2) [676B6FA0]
Track 13 accurately ripped (confidence 2) [F4ED931D]
Track 14 accurately ripped (confidence 2) [9311D531]
All tracks accurately ripped
End of status report

Содержание индексной карты (.CUE)

REM DISCID BD10F70E
REM COMMENT "ExactAudioCopy v0.99pb3"
PERFORMER "Hille Perl"
TITLE "Les Voix Humaines"
FILE "CDImage.ape" WAVE
TRACK 01 AUDIO
TITLE "Les voix humaines"
PERFORMER "Hille Perl"
ISRC DEE470700333
INDEX 01 00:00:00
TRACK 02 AUDIO
TITLE "Le Badinage"
PERFORMER "Hille Perl"
ISRC DEE470700334
INDEX 00 05:57:24
INDEX 01 06:01:61
TRACK 03 AUDIO
TITLE "Chaconne"
PERFORMER "Hille Perl"
ISRC DEE470700335
INDEX 00 09:44:36
INDEX 01 09:48:56
TRACK 04 AUDIO
TITLE "Le Labyrinthe"
PERFORMER "Hille Perl"
ISRC DEE470700336
INDEX 00 13:51:21
INDEX 01 13:55:45
TRACK 05 AUDIO
TITLE "Cloches ou Carillon"
PERFORMER "Hille Perl"
ISRC DEE470700337
INDEX 00 24:16:42
INDEX 01 24:20:50
TRACK 06 AUDIO
TITLE "L'oraison funиbre"
PERFORMER "Hille Perl"
ISRC DEE470700338
INDEX 00 28:57:15
INDEX 01 29:01:63
TRACK 07 AUDIO
TITLE "Tombeau pour Monsieur Lully"
PERFORMER "Hille Perl"
ISRC DEE470700339
INDEX 00 34:24:48
INDEX 01 34:28:09
TRACK 08 AUDIO
TITLE "Feste champкtre"
PERFORMER "Hille Perl"
ISRC DEE470700340
INDEX 00 41:12:12
INDEX 01 41:18:63
TRACK 09 AUDIO
TITLE "Cascades"
PERFORMER "Hille Perl"
ISRC DEE470700341
INDEX 00 45:27:45
INDEX 01 45:35:14
TRACK 10 AUDIO
TITLE "Rondeau le bijou"
PERFORMER "Hille Perl"
ISRC DEE470700342
INDEX 00 50:14:60
INDEX 01 50:19:01
TRACK 11 AUDIO
TITLE "Le tourbillon"
PERFORMER "Hille Perl"
ISRC DEE470700343
INDEX 01 53:04:50
TRACK 12 AUDIO
TITLE "Folies d'Espagne"
PERFORMER "Hille Perl"
ISRC DEE470700344
INDEX 00 54:51:73
INDEX 01 54:55:37
TRACK 13 AUDIO
TITLE "L'arabesque"
PERFORMER "Hille Perl"
ISRC DEE470700345
INDEX 00 60:04:48
INDEX 01 60:12:63
TRACK 14 AUDIO
TITLE "La reveuse"
PERFORMER "Hille Perl"
ISRC DEE470700346
INDEX 00 65:14:54
INDEX 01 65:18:37



Показать сообщения:    

Текущее время: 08-Дек 19:11

Часовой пояс: UTC + 3


Вы не можете начинать темы
Вы не можете отвечать на сообщения
Вы не можете редактировать свои сообщения
Вы не можете удалять свои сообщения
Вы не можете голосовать в опросах
Вы не можете прикреплять файлы к сообщениям
Вы не можете скачивать файлы