(Baroque pieces de viole) Marin Marais - Pour la Violle et le Theorbe (Hille Perl, Lee Santana) - 2004, FLAC (image+.cue) lossless


 

[Цитировать]

Marin Marais - Pour la Violle et le Théorbe

Жанр: Baroque pieces de viole
Страна-производитель диска: Made in the EU
Год издания диска: 2004
Издатель (лейбл): BMG Ariola Classics GmbH / deutsche harmonia mundi
Номер по каталогу: DHM 82876587912
Дата записи: 2004
Аудиокодек: FLAC
Тип рипа: image+.cue
Битрейт аудио: lossless
Продолжительность: 78'47
Источник: релизер
сайт-источник/ник/другое: Ice
Наличие сканов в содержимом раздачи: да
Треклист:

скрытый текст

Suite en re
01 Prélude pour la violle et le théorbe
02 Folies
03 La Bagatelle
Suite en sol
04 Prélude
05 Caprice
06 Allemande (& Double)
07 Courante
08 Sarabande
09 Gigue la Chicane
10 Rondeau Louré
11 Plainte
12 Menuet Fantasque & Double
13 Le Moulinet
Suite en re de Robert de Visée
14 Prélude
15 Allemande
16 Aire
17 Passacalle
Suite en Re
18 Fantaisie
19 Allemande (& Double)
20 Courante (& Double)
21 Sarabande (& Double)
22 Gigue
23 La paysane
24 Chaconne
Sujet Divesitez
25 20 Couplets

скрытый текст

01. Marin Marais : Suite en re: Prelude pour la violle et le theorbe [0:02:20.54]
02. Folies [0:14:15.74]
03. La bagatelle [0:02:05.82]
04. Suite en sol: Prelude [0:03:43.18]
05. Caprice [0:00:44.70]
06. Allemande (et double) [0:02:16.90]
07. Courante [0:01:28.77]
08. Sarabande [0:03:02.30]
09. Gigue la chicane [0:01:50.93]
10. Rondeau loure [0:03:36.04]
11. Plainte [0:02:30.72]
12. Menuet fantasque et double [0:01:08.65]
13. Le moulinet [0:02:45.18]
14. Robert de Visee : Suite en re: Prelude [0:01:19.66]
15. Allemande [0:02:54.82]
16. Aire [0:02:38.40]
17. Passacalle [0:02:14.50]
18. Marin Marais : Suite en re: Fantaisie [0:01:14.98]
19. Allemande (et double) [0:02:24.08]
20. Courante (et double) [0:01:45.74]
21. Sarabande (et double) [0:02:11.45]
22. Gigue [0:01:42.77]
23. La paysane [0:01:11.08]
24. Chaconne [0:05:57.89]
25. Sujet Diversitez: 20 couplets [0:11:20.88]
Исполнители:

скрытый текст

Marin Marais
Pour la Violle et le Théorbe
Performers:
Hille Perl - Viola da Gamba
Lee Santana - Theorbo
Recording: 2-6 Jan. 2004, Colnrade, Germany

Лог создания рипа

Exact Audio Copy V0.99 prebeta 5 from 4. May 2009
EAC extraction logfile from 16. July 2010, 16:07
Hille Perl & Lee Santana / Marin Marais : Pour la Violle et le Theorbe
Used drive : TSSTcorpCDDVDW SE-S224Q Adapter: 2 ID: 0
Read mode : Secure
Utilize accurate stream : Yes
Defeat audio cache : Yes
Make use of C2 pointers : No
Read offset correction : 6
Overread into Lead-In and Lead-Out : No
Fill up missing offset samples with silence : Yes
Delete leading and trailing silent blocks : No
Null samples used in CRC calculations : Yes
Used interface : Installed external ASPI interface
Used output format : Monkey's Audio Lossless Encoder v3.99 DLL
Sample format : Normal Lossless Compression
TOC of the extracted CD
Track | Start | Length | Start sector | End sector
---------------------------------------------------------
1 | 0:00.00 | 2:20.41 | 0 | 10540
2 | 2:20.41 | 14:15.56 | 10541 | 74721
3 | 16:36.22 | 2:05.62 | 74722 | 84158
4 | 18:42.09 | 3:43.14 | 84159 | 100897
5 | 22:25.23 | 0:44.53 | 100898 | 104250
6 | 23:10.01 | 2:16.68 | 104251 | 114518
7 | 25:26.69 | 1:28.58 | 114519 | 121176
8 | 26:55.52 | 3:02.23 | 121177 | 134849
9 | 29:58.00 | 1:50.70 | 134850 | 143169
10 | 31:48.70 | 3:36.03 | 143170 | 159372
11 | 35:24.73 | 2:30.54 | 159373 | 170676
12 | 37:55.52 | 1:08.49 | 170677 | 175825
13 | 39:04.26 | 2:45.14 | 175826 | 188214
14 | 41:49.40 | 1:19.50 | 188215 | 194189
15 | 43:09.15 | 2:54.62 | 194190 | 207301
16 | 46:04.02 | 2:38.30 | 207302 | 219181
17 | 48:42.32 | 2:14.38 | 219182 | 229269
18 | 50:56.70 | 1:14.74 | 229270 | 234893
19 | 52:11.69 | 2:24.06 | 234894 | 245699
20 | 54:36.00 | 1:45.56 | 245700 | 253630
21 | 56:21.56 | 2:11.34 | 253631 | 263489
22 | 58:33.15 | 1:42.58 | 263490 | 271197
23 | 60:15.73 | 1:11.06 | 271198 | 276528
24 | 61:27.04 | 5:57.67 | 276529 | 303370
25 | 67:24.71 | 11:20.66 | 303371 | 354436
Range status and errors
Selected range
Filename J:\Ice\HP.LS.MMplVelT\Hille Perl & Lee Santana - Marin Marais Pour la Violle et le Theorbe.ape
Peak level 73.1 %
Range quality 100.0 %
Test CRC 2916A52B
Copy CRC 2916A52B
Copy OK
No errors occurred
AccurateRip summary
Track 1 accurately ripped (confidence 17) [67D00BE8]
Track 2 accurately ripped (confidence 18) [F9145734]
Track 3 accurately ripped (confidence 18) [751405DE]
Track 4 accurately ripped (confidence 18) [3B1FDC8C]
Track 5 accurately ripped (confidence 18) [7890D3C3]
Track 6 accurately ripped (confidence 18) [07E5E261]
Track 7 accurately ripped (confidence 18) [A98A60B5]
Track 8 accurately ripped (confidence 18) [03BEA39F]
Track 9 accurately ripped (confidence 18) [9305AF41]
Track 10 accurately ripped (confidence 18) [BCE266B8]
Track 11 accurately ripped (confidence 18) [CB247022]
Track 12 accurately ripped (confidence 18) [16327158]
Track 13 accurately ripped (confidence 18) [FD7ACDAD]
Track 14 accurately ripped (confidence 17) [CE3125FA]
Track 15 accurately ripped (confidence 18) [8380C11F]
Track 16 accurately ripped (confidence 18) [B59D64CE]
Track 17 accurately ripped (confidence 18) [92BD3E31]
Track 18 accurately ripped (confidence 18) [74FC28FB]
Track 19 accurately ripped (confidence 18) [3EE2ECCB]
Track 20 accurately ripped (confidence 18) [876611E0]
Track 21 accurately ripped (confidence 18) [C3E0901C]
Track 22 accurately ripped (confidence 18) [1CFD5432]
Track 23 accurately ripped (confidence 18) [07B314CB]
Track 24 accurately ripped (confidence 18) [24FE6CD0]
Track 25 accurately ripped (confidence 18) [B59F7B2E]
All tracks accurately ripped
End of status report

Содержание индексной карты (.CUE)

REM GENRE Classical
REM DATE 2004
REM DISCID 6F127519
REM COMMENT "ExactAudioCopy v0.99pb5"
PERFORMER "Hille Perl & Lee Santana"
TITLE "Marin Marais : Pour la Violle et le Theorbe"
FILE "Hille Perl & Lee Santana - Marin Marais Pour la Violle et le Theorbe.ape" WAVE
TRACK 01 AUDIO
TITLE "Marin Marais : Suite en re: Prelude pour la violle et le theorbe"
PERFORMER "Hille Perl & Lee Santana"
ISRC INDEX 01 00:00:00
TRACK 02 AUDIO
TITLE "Folies"
PERFORMER "Hille Perl & Lee Santana"
ISRC INDEX 01 02:20:41
TRACK 03 AUDIO
TITLE "La bagatelle"
PERFORMER "Hille Perl & Lee Santana"
ISRC INDEX 01 16:36:22
TRACK 04 AUDIO
TITLE "Suite en sol: Prelude"
PERFORMER "Hille Perl & Lee Santana"
ISRC INDEX 01 18:42:09
TRACK 05 AUDIO
TITLE "Caprice"
PERFORMER "Hille Perl & Lee Santana"
ISRC INDEX 01 22:25:23
TRACK 06 AUDIO
TITLE "Allemande (et double)"
PERFORMER "Hille Perl & Lee Santana"
ISRC INDEX 01 23:10:01
TRACK 07 AUDIO
TITLE "Courante"
PERFORMER "Hille Perl & Lee Santana"
ISRC INDEX 01 25:26:69
TRACK 08 AUDIO
TITLE "Sarabande"
PERFORMER "Hille Perl & Lee Santana"
ISRC INDEX 01 26:55:52
TRACK 09 AUDIO
TITLE "Gigue la chicane"
PERFORMER "Hille Perl & Lee Santana"
ISRC INDEX 01 29:58:00
TRACK 10 AUDIO
TITLE "Rondeau loure"
PERFORMER "Hille Perl & Lee Santana"
ISRC INDEX 01 31:48:70
TRACK 11 AUDIO
TITLE "Plainte"
PERFORMER "Hille Perl & Lee Santana"
ISRC INDEX 01 35:24:73
TRACK 12 AUDIO
TITLE "Menuet fantasque et double"
PERFORMER "Hille Perl & Lee Santana"
ISRC INDEX 01 37:55:52
TRACK 13 AUDIO
TITLE "Le moulinet"
PERFORMER "Hille Perl & Lee Santana"
ISRC INDEX 01 39:04:26
TRACK 14 AUDIO
TITLE "Robert de Visee : Suite en re: Prelude"
PERFORMER "Hille Perl & Lee Santana"
ISRC INDEX 01 41:49:40
TRACK 15 AUDIO
TITLE "Allemande"
PERFORMER "Hille Perl & Lee Santana"
ISRC INDEX 01 43:09:15
TRACK 16 AUDIO
TITLE "Aire"
PERFORMER "Hille Perl & Lee Santana"
ISRC INDEX 01 46:04:02
TRACK 17 AUDIO
TITLE "Passacalle"
PERFORMER "Hille Perl & Lee Santana"
ISRC INDEX 01 48:42:32
TRACK 18 AUDIO
TITLE "Marin Marais : Suite en re: Fantaisie"
PERFORMER "Hille Perl & Lee Santana"
ISRC INDEX 01 50:56:70
TRACK 19 AUDIO
TITLE "Allemande (et double)"
PERFORMER "Hille Perl & Lee Santana"
ISRC INDEX 01 52:11:69
TRACK 20 AUDIO
TITLE "Courante (et double)"
PERFORMER "Hille Perl & Lee Santana"
ISRC INDEX 01 54:36:00
TRACK 21 AUDIO
TITLE "Sarabande (et double)"
PERFORMER "Hille Perl & Lee Santana"
ISRC INDEX 01 56:21:56
TRACK 22 AUDIO
TITLE "Gigue"
PERFORMER "Hille Perl & Lee Santana"
ISRC INDEX 01 58:33:15
TRACK 23 AUDIO
TITLE "La paysane"
PERFORMER "Hille Perl & Lee Santana"
ISRC INDEX 01 60:15:73
TRACK 24 AUDIO
TITLE "Chaconne"
PERFORMER "Hille Perl & Lee Santana"
ISRC INDEX 01 61:27:04
TRACK 25 AUDIO
TITLE "Sujet Diversitez: 20 couplets"
PERFORMER "Hille Perl & Lee Santana"
ISRC INDEX 01 67:24:71



Показать сообщения:    

Текущее время: 10-Дек 23:27

Часовой пояс: UTC + 3


Вы не можете начинать темы
Вы не можете отвечать на сообщения
Вы не можете редактировать свои сообщения
Вы не можете удалять свои сообщения
Вы не можете голосовать в опросах
Вы не можете прикреплять файлы к сообщениям
Вы не можете скачивать файлы