(Baroque pieces de viole) Marin Marais - Pieces de Caractere (Lorenz Duftschmid) - 2004, APE (image+.cue) lossless


 

[Цитировать]

Marais Marin - Pieces de Caractere

Жанр: Baroque pieces de viole
Страна-производитель диска: Made in Germany
Год издания диска: 2004
Издатель (лейбл): cpo
Номер по каталогу: 777 007-2
Дата записи: 2004
Аудиокодек: APE
Тип рипа: image+.cue
Битрейт аудио: lossless
Продолжительность: 62:02
Источник: релизер
сайт-источник/ник/другое: собственная коллекция
Наличие сканов в содержимом раздачи: да
Треклист:

скрытый текст

1. Marche Torute [2:04]
2. La Tartarine [1:57]
3. La Reveuse [6:00]
4. L'arabesque [3:43]
5. Le Badinage [5:47]
6. Feste Champetre [4:46]
7. Le Tourbillon [1:55]
8. Muzette I/II [4:04]
9. Labyrinthe [13:09]
10. Les voix humaines [5:10]
11. Le Folies d'Espagne [13:56]
Исполнители:

скрытый текст

Marin Marais (1656 -1728)
Pieces de Caractere
Lorenz Duftschmid, viola da gamba
Thomas C.Boysen, theorbe & guitar
Johannes Hammerle, harpsichord

Лог создания рипа

Exact Audio Copy V0.99 prebeta 4 from 23. January 2008
Duftschmid, Boysen, Hammerle / Marin Marais - Pieces de Caractere
Used drive : Adapter: 0 ID: 0
Read mode : Secure
Utilize accurate stream : Yes
Defeat audio cache : Yes
Make use of C2 pointers : No
Read offset correction : 48
Overread into Lead-In and Lead-Out : No
Fill up missing offset samples with silence : Yes
Delete leading and trailing silent blocks : No
Null samples used in CRC calculations : Yes
Used interface : Native Win32 interface for Win NT & 2000
Used output format : Monkey's Audio Lossless Encoder
Selected bitrate : Normal Lossless Compression
Quality : High
Add ID3 tag : Yes
Command line compressor : C:\Program Files\Monkey's Audio\MAC.exe
Additional command line options : -c2000 -v
TOC of the extracted CD
Track | Start | Length | Start sector | End sector
---------------------------------------------------------
1 | 0:00.00 | 2:04.55 | 0 | 9354
2 | 2:04.55 | 1:57.20 | 9355 | 18149
3 | 4:02.00 | 6:00.00 | 18150 | 45149
4 | 10:02.00 | 3:43.00 | 45150 | 61874
5 | 13:45.00 | 5:47.00 | 61875 | 87899
6 | 19:32.00 | 4:46.00 | 87900 | 109349
7 | 24:18.00 | 1:55.00 | 109350 | 117974
8 | 26:13.00 | 4:04.00 | 117975 | 136274
9 | 30:17.00 | 13:09.00 | 136275 | 195449
10 | 43:26.00 | 5:10.00 | 195450 | 218699
11 | 48:36.00 | 13:56.00 | 218700 | 281399
Range status and errors
Selected range
Filename E:\Marin Marais - Pieces de Caractere.wav
Peak level 99.4 %
Range quality 99.9 %
Copy CRC 41F44E7A
Copy OK
No errors occurred
AccurateRip summary
Track 1 Accurately Ripped (confidence 2) [34507315]
Track 2 Accurately Ripped (confidence 2) [51fb32bd]
Track 3 Accurately Ripped (confidence 2) [9c27307c]
Track 4 Accurately Ripped (confidence 2) [0aa2b3b3]
Track 5 Accurately Ripped (confidence 2) [ef873b27]
Track 6 Accurately Ripped (confidence 2) [35370f19]
Track 7 Accurately Ripped (confidence 2) [abea21ca]
Track 8 Accurately Ripped (confidence 2) [9990f5f1]
Track 9 Accurately Ripped (confidence 2) [9a0c91c6]
Track 10 Accurately Ripped (confidence 2) [95752528]
Track 11 Accurately Ripped (confidence 2) [a1de84e5]
All tracks accurately ripped
End of status report

Содержание индексной карты (.CUE)

REM GENRE Classical
REM DATE 2004
REM DISCID 910EA80B
REM COMMENT "ExactAudioCopy v0.99pb4"
PERFORMER "Duftschmid, Boysen, Hammerle"
TITLE "Marin Marais - Pieces de Caractere"
FILE "Marin Marais - Pieces de Caractere.ape" WAVE
TRACK 01 AUDIO
TITLE "Marche Torute"
PERFORMER "Duftschmid, Boysen, Hammerle"
INDEX 01 00:00:00
TRACK 02 AUDIO
TITLE "La Tartarine"
PERFORMER "Duftschmid, Boysen, Hammerle"
INDEX 01 02:04:55
TRACK 03 AUDIO
TITLE "La Reveuse"
PERFORMER "Duftschmid, Boysen, Hammerle"
INDEX 00 04:01:74
INDEX 01 04:02:00
TRACK 04 AUDIO
TITLE "L'arabesque"
PERFORMER "Duftschmid, Boysen, Hammerle"
INDEX 00 10:01:74
INDEX 01 10:02:00
TRACK 05 AUDIO
TITLE "Le Badinage"
PERFORMER "Duftschmid, Boysen, Hammerle"
INDEX 00 13:44:74
INDEX 01 13:45:00
TRACK 06 AUDIO
TITLE "Feste Champetre"
PERFORMER "Duftschmid, Boysen, Hammerle"
INDEX 00 19:31:74
INDEX 01 19:32:00
TRACK 07 AUDIO
TITLE "Le Tourbillon"
PERFORMER "Duftschmid, Boysen, Hammerle"
INDEX 00 24:17:74
INDEX 01 24:18:00
TRACK 08 AUDIO
TITLE "Muzette I/II"
PERFORMER "Duftschmid, Boysen, Hammerle"
INDEX 00 26:12:74
INDEX 01 26:13:00
TRACK 09 AUDIO
TITLE "Labyrinthe"
PERFORMER "Duftschmid, Boysen, Hammerle"
INDEX 00 30:16:74
INDEX 01 30:17:00
TRACK 10 AUDIO
TITLE "Les voix humaines"
PERFORMER "Duftschmid, Boysen, Hammerle"
INDEX 00 43:25:74
INDEX 01 43:26:00
TRACK 11 AUDIO
TITLE "Le Folies d'Espagne"
PERFORMER "Duftschmid, Boysen, Hammerle"
INDEX 00 48:35:74
INDEX 01 48:36:00



Показать сообщения:    

Текущее время: 05-Дек 13:33

Часовой пояс: UTC + 3


Вы не можете начинать темы
Вы не можете отвечать на сообщения
Вы не можете редактировать свои сообщения
Вы не можете удалять свои сообщения
Вы не можете голосовать в опросах
Вы не можете прикреплять файлы к сообщениям
Вы не можете скачивать файлы