(Classical) Joonas Kokkonen - String Quartets Nos.1-3; Piano Quintet - Tapani Valsta, Sibelius Academy String Quartet - 1991, FLAC (image+.cue) lossless


 

[Цитировать]

Joonas Kokkonen - String Quartets Nos.1-3; Piano Quintet - Tapani Valsta, Sibelius Academy String Quartet
Жанр: Classical
Страна-производитель диска: Sweden
Год издания диска: 1991
Издатель (лейбл): BIS
Номер по каталогу: BIS-CD-458
Дата записи: 1989
Аудиокодек: FLAC
Тип рипа: image+.cue
Битрейт аудио: lossless
Продолжительность: 75:34
Источник: собственный рип
Наличие сканов в содержимом раздачи: да
Треклист:
Joonas Kokkonen (1921-1996)
[1]-[3] String Quartet (No.1) (1958-59)
[4]-[7] String Quartet No.2 (1964-66)
[8]-[10] String Quartet No.3 (1976)
[11]-[14] Quintet for Piano and String Quartet, Op.5
Исполнители:
Tapani Valsta piano
Sibelius Academy String Quartet
Seppo Tukiainen violin
Erkki Kantola violin
Veikko Kosonen viola
Arto Noras cello

Лог создания рипа

Exact Audio Copy V1.0 beta 3 from 29. August 2011
EAC extraction logfile from 14. December 2014, 21:38
Sibelius Academy String Quartet / Kokkonen - String Quartets Nos.1-3; Piano Quintet
Used drive : HL-DT-STDVDRAM GU70N Adapter: 0 ID: 0
Read mode : Secure
Utilize accurate stream : Yes
Defeat audio cache : Yes
Make use of C2 pointers : No
Read offset correction : 48
Overread into Lead-In and Lead-Out : No
Fill up missing offset samples with silence : Yes
Delete leading and trailing silent blocks : No
Null samples used in CRC calculations : Yes
Used interface : Native Win32 interface for Win NT & 2000
Used output format : User Defined Encoder
Selected bitrate : 128 kBit/s
Quality : High
Add ID3 tag : No
Command line compressor : C:\Program Files (x86)\Exact Audio Copy\Flac\flac.exe
Additional command line options : -V -8 -T "Date=%year%" -T "Genre=%genre%" %source%
TOC of the extracted CD
Track | Start | Length | Start sector | End sector
---------------------------------------------------------
1 | 0:00.00 | 6:13.00 | 0 | 27974
2 | 6:13.00 | 4:51.00 | 27975 | 49799
3 | 11:04.00 | 5:36.00 | 49800 | 74999
4 | 16:40.00 | 5:37.00 | 75000 | 100274
5 | 22:17.00 | 2:48.00 | 100275 | 112874
6 | 25:05.00 | 6:17.00 | 112875 | 141149
7 | 31:22.00 | 2:53.00 | 141150 | 154124
8 | 34:15.00 | 8:21.00 | 154125 | 191699
9 | 42:36.00 | 3:14.00 | 191700 | 206249
10 | 45:50.00 | 6:00.00 | 206250 | 233249
11 | 51:50.00 | 7:54.00 | 233250 | 268799
12 | 59:44.00 | 5:25.00 | 268800 | 293174
13 | 65:09.00 | 4:57.00 | 293175 | 315449
14 | 70:06.00 | 5:28.00 | 315450 | 340049
Range status and errors
Selected range
Filename C:\temp\BIS-CD-0458 - Kokkonen - String Quartets Nos.1-3; Piano Quintet\Kokkonen - String Quartets Nos.1-3; Piano Quintet.wav
Peak level 100.0 %
Extraction speed 2.3 X
Range quality 100.0 %
Test CRC A2DDD908
Copy CRC A2DDD908
Copy OK
No errors occurred
AccurateRip summary
Track 1 accurately ripped (confidence 2) [57BBA61F] (AR v2)
Track 2 accurately ripped (confidence 2) [46E71885] (AR v2)
Track 3 accurately ripped (confidence 2) [6F154A8E] (AR v2)
Track 4 accurately ripped (confidence 2) [E183CDBE] (AR v2)
Track 5 accurately ripped (confidence 2) [0CF54A3E] (AR v2)
Track 6 accurately ripped (confidence 2) [2CDD1BA0] (AR v2)
Track 7 accurately ripped (confidence 2) [751D0034] (AR v2)
Track 8 accurately ripped (confidence 2) [970F5244] (AR v2)
Track 9 accurately ripped (confidence 2) [2C441223] (AR v2)
Track 10 accurately ripped (confidence 2) [EF54D992] (AR v2)
Track 11 accurately ripped (confidence 2) [EABD3E7B] (AR v2)
Track 12 accurately ripped (confidence 2) [A3B51E2A] (AR v2)
Track 13 accurately ripped (confidence 2) [E5413A60] (AR v2)
Track 14 accurately ripped (confidence 2) [9189AD5C] (AR v2)
All tracks accurately ripped
End of status report
==== Log checksum 83DB048EBA250899A5FAE0FB63E27AE7284FF993A6A9AF3A47AF463351430FFC ====



Показать сообщения:    

Текущее время: 05-Дек 11:33

Часовой пояс: UTC + 3


Вы не можете начинать темы
Вы не можете отвечать на сообщения
Вы не можете редактировать свои сообщения
Вы не можете удалять свои сообщения
Вы не можете голосовать в опросах
Вы не можете прикреплять файлы к сообщениям
Вы не можете скачивать файлы